  0
SECTION
  2
HEADER
  9
$ACADVER
  1
AC1018
  9
$ACADMAINTVER
 70
     0
  9
$DWGCODEPAGE
  3
ANSI_1252
  9
$INSBASE
 10
0.0
 20
0.0
 30
0.0
  9
$EXTMIN
 10
-224.9537951599508
 20
-3.53029234279876
 30
0.0
  9
$EXTMAX
 10
72.04620484004727
 20
206.4697076572014
 30
0.0
  9
$LIMMIN
 10
0.0
 20
0.0
  9
$LIMMAX
 10
12.0
 20
9.0
  9
$ORTHOMODE
 70
     0
  9
$REGENMODE
 70
     1
  9
$FILLMODE
 70
     1
  9
$QTEXTMODE
 70
     0
  9
$MIRRTEXT
 70
     1
  9
$LTSCALE
 40
1.0
  9
$ATTMODE
 70
     1
  9
$TEXTSIZE
 40
0.2
  9
$TRACEWID
 40
0.05
  9
$TEXTSTYLE
  7
Standard
  9
$CLAYER
  8
0
  9
$CELTYPE
  6
ByLayer
  9
$CECOLOR
 62
   256
  9
$CELTSCALE
 40
1.0
  9
$DISPSILH
 70
     0
  9
$DIMSCALE
 40
1.0
  9
$DIMASZ
 40
0.18
  9
$DIMEXO
 40
0.0625
  9
$DIMDLI
 40
0.38
  9
$DIMRND
 40
0.0
  9
$DIMDLE
 40
0.0
  9
$DIMEXE
 40
0.18
  9
$DIMTP
 40
0.0
  9
$DIMTM
 40
0.0
  9
$DIMTXT
 40
0.18
  9
$DIMCEN
 40
0.09
  9
$DIMTSZ
 40
0.0
  9
$DIMTOL
 70
     0
  9
$DIMLIM
 70
     0
  9
$DIMTIH
 70
     1
  9
$DIMTOH
 70
     1
  9
$DIMSE1
 70
     0
  9
$DIMSE2
 70
     0
  9
$DIMTAD
 70
     0
  9
$DIMZIN
 70
     0
  9
$DIMBLK
  1

  9
$DIMASO
 70
     1
  9
$DIMSHO
 70
     1
  9
$DIMPOST
  1

  9
$DIMAPOST
  1

  9
$DIMALT
 70
     0
  9
$DIMALTD
 70
     2
  9
$DIMALTF
 40
25.4
  9
$DIMLFAC
 40
1.0
  9
$DIMTOFL
 70
     0
  9
$DIMTVP
 40
0.0
  9
$DIMTIX
 70
     0
  9
$DIMSOXD
 70
     0
  9
$DIMSAH
 70
     0
  9
$DIMBLK1
  1

  9
$DIMBLK2
  1

  9
$DIMSTYLE
  2
Standard
  9
$DIMCLRD
 70
     0
  9
$DIMCLRE
 70
     0
  9
$DIMCLRT
 70
     0
  9
$DIMTFAC
 40
1.0
  9
$DIMGAP
 40
0.09
  9
$DIMJUST
 70
     0
  9
$DIMSD1
 70
     0
  9
$DIMSD2
 70
     0
  9
$DIMTOLJ
 70
     1
  9
$DIMTZIN
 70
     0
  9
$DIMALTZ
 70
     0
  9
$DIMALTTZ
 70
     0
  9
$DIMUPT
 70
     0
  9
$DIMDEC
 70
     4
  9
$DIMTDEC
 70
     4
  9
$DIMALTU
 70
     2
  9
$DIMALTTD
 70
     2
  9
$DIMTXSTY
  7
Standard
  9
$DIMAUNIT
 70
     0
  9
$DIMADEC
 70
     0
  9
$DIMALTRND
 40
0.0
  9
$DIMAZIN
 70
     0
  9
$DIMDSEP
 70
    46
  9
$DIMATFIT
 70
     3
  9
$DIMFRAC
 70
     0
  9
$DIMLDRBLK
  1

  9
$DIMLUNIT
 70
     2
  9
$DIMLWD
 70
    -2
  9
$DIMLWE
 70
    -2
  9
$DIMTMOVE
 70
     0
  9
$LUNITS
 70
     2
  9
$LUPREC
 70
     4
  9
$SKETCHINC
 40
0.1
  9
$FILLETRAD
 40
0.5
  9
$AUNITS
 70
     0
  9
$AUPREC
 70
     0
  9
$MENU
  1
.
  9
$ELEVATION
 40
0.0
  9
$PELEVATION
 40
0.0
  9
$THICKNESS
 40
0.0
  9
$LIMCHECK
 70
     0
  9
$CHAMFERA
 40
0.5
  9
$CHAMFERB
 40
0.5
  9
$CHAMFERC
 40
1.0
  9
$CHAMFERD
 40
0.0
  9
$SKPOLY
 70
     0
  9
$TDCREATE
 40
2458184.481985093
  9
$TDUCREATE
 40
2458184.440318426
  9
$TDUPDATE
 40
2458184.481985637
  9
$TDUUPDATE
 40
2458184.44031897
  9
$TDINDWG
 40
0.0000000116
  9
$TDUSRTIMER
 40
0.0000000116
  9
$USRTIMER
 70
     1
  9
$ANGBASE
 50
0.0
  9
$ANGDIR
 70
     0
  9
$PDMODE
 70
     0
  9
$PDSIZE
 40
0.0
  9
$PLINEWID
 40
0.0
  9
$SPLFRAME
 70
     0
  9
$SPLINETYPE
 70
     6
  9
$SPLINESEGS
 70
     8
  9
$HANDSEED
  5
2D8
  9
$SURFTAB1
 70
     6
  9
$SURFTAB2
 70
     6
  9
$SURFTYPE
 70
     6
  9
$SURFU
 70
     6
  9
$SURFV
 70
     6
  9
$UCSBASE
  2

  9
$UCSNAME
  2

  9
$UCSORG
 10
0.0
 20
0.0
 30
0.0
  9
$UCSXDIR
 10
1.0
 20
0.0
 30
0.0
  9
$UCSYDIR
 10
0.0
 20
1.0
 30
0.0
  9
$UCSORTHOREF
  2

  9
$UCSORTHOVIEW
 70
     0
  9
$UCSORGTOP
 10
0.0
 20
0.0
 30
0.0
  9
$UCSORGBOTTOM
 10
0.0
 20
0.0
 30
0.0
  9
$UCSORGLEFT
 10
0.0
 20
0.0
 30
0.0
  9
$UCSORGRIGHT
 10
0.0
 20
0.0
 30
0.0
  9
$UCSORGFRONT
 10
0.0
 20
0.0
 30
0.0
  9
$UCSORGBACK
 10
0.0
 20
0.0
 30
0.0
  9
$PUCSBASE
  2

  9
$PUCSNAME
  2

  9
$PUCSORG
 10
0.0
 20
0.0
 30
0.0
  9
$PUCSXDIR
 10
1.0
 20
0.0
 30
0.0
  9
$PUCSYDIR
 10
0.0
 20
1.0
 30
0.0
  9
$PUCSORTHOREF
  2

  9
$PUCSORTHOVIEW
 70
     0
  9
$PUCSORGTOP
 10
0.0
 20
0.0
 30
0.0
  9
$PUCSORGBOTTOM
 10
0.0
 20
0.0
 30
0.0
  9
$PUCSORGLEFT
 10
0.0
 20
0.0
 30
0.0
  9
$PUCSORGRIGHT
 10
0.0
 20
0.0
 30
0.0
  9
$PUCSORGFRONT
 10
0.0
 20
0.0
 30
0.0
  9
$PUCSORGBACK
 10
0.0
 20
0.0
 30
0.0
  9
$USERI1
 70
     0
  9
$USERI2
 70
     0
  9
$USERI3
 70
     0
  9
$USERI4
 70
     0
  9
$USERI5
 70
     0
  9
$USERR1
 40
18.1
  9
$USERR2
 40
0.0
  9
$USERR3
 40
0.0
  9
$USERR4
 40
0.0
  9
$USERR5
 40
0.0
  9
$WORLDVIEW
 70
     1
  9
$SHADEDGE
 70
     3
  9
$SHADEDIF
 70
    70
  9
$TILEMODE
 70
     1
  9
$MAXACTVP
 70
    64
  9
$PINSBASE
 10
0.0
 20
0.0
 30
0.0
  9
$PLIMCHECK
 70
     0
  9
$PEXTMIN
 10
1.00000000000000E+20
 20
1.00000000000000E+20
 30
1.00000000000000E+20
  9
$PEXTMAX
 10
-1.00000000000000E+20
 20
-1.00000000000000E+20
 30
-1.00000000000000E+20
  9
$PLIMMIN
 10
0.0
 20
0.0
  9
$PLIMMAX
 10
12.0
 20
9.0
  9
$UNITMODE
 70
     0
  9
$VISRETAIN
 70
     1
  9
$PLINEGEN
 70
     0
  9
$PSLTSCALE
 70
     1
  9
$TREEDEPTH
 70
  3020
  9
$CMLSTYLE
  2
Standard
  9
$CMLJUST
 70
     0
  9
$CMLSCALE
 40
1.0
  9
$PROXYGRAPHICS
 70
     1
  9
$MEASUREMENT
 70
     1
  9
$CELWEIGHT
370
    -1
  9
$ENDCAPS
280
     0
  9
$JOINSTYLE
280
     0
  9
$LWDISPLAY
290
     0
  9
$INSUNITS
 70
     4
  9
$HYPERLINKBASE
  1

  9
$STYLESHEET
  1

  9
$XEDIT
290
     1
  9
$CEPSNTYPE
380
     0
  9
$PSTYLEMODE
290
     1
  9
$FINGERPRINTGUID
  2
{22F288EE-4956-418A-9BBF-5028B7F8D18E}
  9
$VERSIONGUID
  2
{FAEB1C32-E019-11D5-929B-00C0DF256EC4}
  9
$EXTNAMES
290
     1
  9
$PSVPSCALE
 40
0.0
  9
$OLESTARTUP
290
     0
  9
$SORTENTS
280
   127
  9
$INDEXCTL
280
     0
  9
$HIDETEXT
280
     1
  9
$XCLIPFRAME
290
     0
  9
$HALOGAP
280
     0
  9
$OBSCOLOR
 70
   257
  9
$OBSLTYPE
280
     0
  9
$INTERSECTIONDISPLAY
280
     0
  9
$INTERSECTIONCOLOR
 70
   257
  9
$DIMASSOC
280
     2
  9
$PROJECTNAME
  1

  0
ENDSEC
  0
SECTION
  2
CLASSES
  0
CLASS
  1
ACDBDICTIONARYWDFLT
  2
AcDbDictionaryWithDefault
  3
ObjectDBX Classes
 90
        0
 91
        4
280
     0
281
     0
  0
CLASS
  1
VISUALSTYLE
  2
AcDbVisualStyle
  3
ObjectDBX Classes
 90
     4095
 91
        4
280
     0
281
     0
  0
CLASS
  1
MATERIAL
  2
AcDbMaterial
  3
ObjectDBX Classes
 90
     1153
 91
        4
280
     0
281
     0
  0
ENDSEC
  0
SECTION
  2
TABLES
  0
TABLE
  2
VPORT
  5
8
330
0
100
AcDbSymbolTable
 70
     1
  0
VPORT
  5
29
330
8
100
AcDbSymbolTableRecord
100
AcDbViewportTableRecord
  2
*Active
 70
     0
 10
0.0
 20
0.0
 11
1.0
 21
1.0
 12
-76.45379515995177
 22
101.4697076572013
 13
0.0
 23
0.0
 14
0.5
 24
0.5
 15
0.5
 25
0.5
 16
0.0
 26
0.0
 36
1.0
 17
0.0
 27
0.0
 37
0.0
 40
231.0000000000002
 41
1.60267857142857
 42
50.0
 43
0.0
 44
0.0
 50
0.0
 51
0.0
 71
     0
 72
   100
 73
     1
 74
     3
 75
     0
 76
     0
 77
     0
 78
     0
281
     0
 65
     1
110
0.0
120
0.0
130
0.0
111
1.0
121
0.0
131
0.0
112
0.0
122
1.0
132
0.0
 79
     0
146
0.0
  0
ENDTAB
  0
TABLE
  2
LTYPE
  5
5
330
0
100
AcDbSymbolTable
 70
     8
  0
LTYPE
  5
14
330
5
100
AcDbSymbolTableRecord
100
AcDbLinetypeTableRecord
  2
ByBlock
 70
     0
  3

 72
    65
 73
     0
 40
0.0
  0
LTYPE
  5
15
330
5
100
AcDbSymbolTableRecord
100
AcDbLinetypeTableRecord
  2
ByLayer
 70
     0
  3

 72
    65
 73
     0
 40
0.0
  0
LTYPE
  5
16
330
5
100
AcDbSymbolTableRecord
100
AcDbLinetypeTableRecord
  2
Continuous
 70
     0
  3
Solid line
 72
    65
 73
     0
 40
0.0
  0
LTYPE
  5
3F
330
5
100
AcDbSymbolTableRecord
100
AcDbLinetypeTableRecord
  2
DASHED
 70
     0
  3
Dashed
 72
    65
 73
     2
 40
15.0
 49
7.0
 74
     0
 49
-8.0
 74
     0
  0
LTYPE
  5
40
330
5
100
AcDbSymbolTableRecord
100
AcDbLinetypeTableRecord
  2
DOTTED
 70
     0
  3
Dotted
 72
    65
 73
     2
 40
1.0
 49
0.0
 74
     0
 49
-1.0
 74
     0
  0
LTYPE
  5
41
330
5
100
AcDbSymbolTableRecord
100
AcDbLinetypeTableRecord
  2
DOT_CENTER
 70
     0
  3
Dot_Center
 72
    65
 73
     4
 40
14.0
 49
12.0
 74
     0
 49
-1.0
 74
     0
 49
0.0
 74
     0
 49
-1.0
 74
     0
  0
LTYPE
  5
42
330
5
100
AcDbSymbolTableRecord
100
AcDbLinetypeTableRecord
  2
LONG_DASHED
 70
     0
  3
Long_Dashed
 72
    65
 73
     2
 40
15.0
 49
10.0
 74
     0
 49
-5.0
 74
     0
  0
LTYPE
  5
43
330
5
100
AcDbSymbolTableRecord
100
AcDbLinetypeTableRecord
  2
DASH_CENTER
 70
     0
  3
Dash_Center
 72
    65
 73
     4
 40
14.0
 49
11.0
 74
     0
 49
-1.0
 74
     0
 49
1.0
 74
     0
 49
-1.0
 74
     0
  0
LTYPE
  5
44
330
5
100
AcDbSymbolTableRecord
100
AcDbLinetypeTableRecord
  2
PHANTOM
 70
     0
  3
Phantom
 72
    65
 73
     6
 40
13.0
 49
10.0
 74
     0
 49
-1.0
 74
     0
 49
0.0
 74
     0
 49
-1.0
 74
     0
 49
0.0
 74
     0
 49
-1.0
 74
     0
  0
LTYPE
  5
45
330
5
100
AcDbSymbolTableRecord
100
AcDbLinetypeTableRecord
  2
CENTER_DASH_DASH
 70
     0
  3
Center_Dash_Dash
 72
    65
 73
     6
 40
14.0
 49
9.0
 74
     0
 49
-1.0
 74
     0
 49
1.0
 74
     0
 49
-1.0
 74
     0
 49
1.0
 74
     0
 49
-1.0
 74
     0
  0
ENDTAB
  0
TABLE
  2
LAYER
  5
2
330
0
100
AcDbSymbolTable
 70
     2
  0
LAYER
  5
10
330
2
100
AcDbSymbolTableRecord
100
AcDbLayerTableRecord
  2
0
 70
     0
 62
     7
  6
Continuous
370
    -3
390
F
  0
LAYER
  5
46
330
2
100
AcDbSymbolTableRecord
100
AcDbLayerTableRecord
  2
1
 70
     0
 62
     7
  6
Continuous
370
    -3
390
F
  0
ENDTAB
  0
TABLE
  2
STYLE
  5
3
330
0
100
AcDbSymbolTable
 70
     5
  0
STYLE
  5
11
330
3
100
AcDbSymbolTableRecord
100
AcDbTextStyleTableRecord
  2
Standard
 70
     0
 40
0.0
 41
1.0
 50
0.0
 71
     0
 42
0.2
  3
txt
  4

  0
STYLE
  5
CB
330
3
100
AcDbSymbolTableRecord
100
AcDbTextStyleTableRecord
  2
CONVERTER_11
 70
     0
 40
0.0
 41
0.9
 50
0.0
 71
     0
 42
0.2
  3
txt.shx
  4

  0
STYLE
  5
26E
330
3
100
AcDbSymbolTableRecord
100
AcDbTextStyleTableRecord
  2
CONVERTER_12
 70
     0
 40
0.0
 41
0.81
 50
0.0
 71
     0
 42
0.2
  3
txt.shx
  4

  0
STYLE
  5
274
330
3
100
AcDbSymbolTableRecord
100
AcDbTextStyleTableRecord
  2
CONVERTER_13
 70
     0
 40
0.0
 41
0.855
 50
0.0
 71
     0
 42
0.2
  3
txt.shx
  4

  0
STYLE
  5
277
330
3
100
AcDbSymbolTableRecord
100
AcDbTextStyleTableRecord
  2
CONVERTER_14
 70
     0
 40
0.0
 41
0.72
 50
0.0
 71
     0
 42
0.2
  3
txt.shx
  4

  0
ENDTAB
  0
TABLE
  2
VIEW
  5
6
330
0
100
AcDbSymbolTable
 70
     0
  0
ENDTAB
  0
TABLE
  2
UCS
  5
7
330
0
100
AcDbSymbolTable
 70
     0
  0
ENDTAB
  0
TABLE
  2
APPID
  5
9
330
0
100
AcDbSymbolTable
 70
     1
  0
APPID
  5
12
330
9
100
AcDbSymbolTableRecord
100
AcDbRegAppTableRecord
  2
ACAD
 70
     0
  0
ENDTAB
  0
TABLE
  2
DIMSTYLE
  5
A
330
0
100
AcDbSymbolTable
 70
     4
100
AcDbDimStyleTable
  0
DIMSTYLE
105
27
330
A
100
AcDbSymbolTableRecord
100
AcDbDimStyleTableRecord
  2
Standard
 70
     0
178
     0
340
11
  0
DIMSTYLE
105
CF
102
{ACAD_REACTORS
330
D0
102
}
330
A
100
AcDbSymbolTableRecord
100
AcDbDimStyleTableRecord
  2
ME10_DIM_10
 70
     0
 41
3.5
 42
0.0
 44
1.5
 73
     0
 74
     0
 77
     1
 78
     8
140
3.5
147
1.5
172
     1
173
     1
174
     1
175
     1
176
     2
177
     2
271
     2
178
     3
271
     2
340
CB
  0
DIMSTYLE
105
DA
102
{ACAD_REACTORS
330
DB
102
}
330
A
100
AcDbSymbolTableRecord
100
AcDbDimStyleTableRecord
  2
ME10_DIM_11
 70
     0
 41
3.5
 42
0.0
 44
1.5
 73
     0
 74
     0
 77
     1
 78
     8
140
3.5
147
1.5
172
     1
173
     1
174
     1
175
     1
176
     2
177
     2
271
     2
178
     3
271
     2
340
CB
  0
DIMSTYLE
105
175
102
{ACAD_REACTORS
330
176
102
}
330
A
100
AcDbSymbolTableRecord
100
AcDbDimStyleTableRecord
  2
ME10_DIM_12
 70
     0
 41
3.5
 42
0.0
 44
1.5
 73
     0
 74
     0
 77
     1
 78
     8
140
3.5
147
1.5
172
     1
173
     1
174
     1
175
     1
176
     2
177
     2
178
     3
340
CB
  0
ENDTAB
  0
TABLE
  2
BLOCK_RECORD
  5
1
330
0
100
AcDbSymbolTable
 70
    20
  0
BLOCK_RECORD
  5
1F
330
1
100
AcDbSymbolTableRecord
100
AcDbBlockTableRecord
  2
*Model_Space
340
22
  0
BLOCK_RECORD
  5
1B
330
1
100
AcDbSymbolTableRecord
100
AcDbBlockTableRecord
  2
*Paper_Space
340
1E
  0
BLOCK_RECORD
  5
23
330
1
100
AcDbSymbolTableRecord
100
AcDbBlockTableRecord
  2
*Paper_Space0
340
26
  0
BLOCK_RECORD
  5
47
330
1
100
AcDbSymbolTableRecord
100
AcDbBlockTableRecord
  2
DS-QTC_1_5-select__1
340
0
102
{BLKREFS
331
4B
102
}
  0
BLOCK_RECORD
  5
4A
330
1
100
AcDbSymbolTableRecord
100
AcDbBlockTableRecord
  2
Back1
340
0
102
{BLKREFS
331
7D
102
}
  0
BLOCK_RECORD
  5
4E
330
1
100
AcDbSymbolTableRecord
100
AcDbBlockTableRecord
  2
DS-QTC_1_5-select__2
340
0
102
{BLKREFS
331
52
102
}
  0
BLOCK_RECORD
  5
51
330
1
100
AcDbSymbolTableRecord
100
AcDbBlockTableRecord
  2
Front1
340
0
102
{BLKREFS
331
7E
102
}
  0
BLOCK_RECORD
  5
55
330
1
100
AcDbSymbolTableRecord
100
AcDbBlockTableRecord
  2
DS-QTC_1_5-select__3
340
0
102
{BLKREFS
331
59
102
}
  0
BLOCK_RECORD
  5
58
330
1
100
AcDbSymbolTableRecord
100
AcDbBlockTableRecord
  2
Gen1
340
0
102
{BLKREFS
331
7F
102
}
  0
BLOCK_RECORD
  5
5C
330
1
100
AcDbSymbolTableRecord
100
AcDbBlockTableRecord
  2
DS-QTC_1_5-select__4
340
0
102
{BLKREFS
331
60
102
}
  0
BLOCK_RECORD
  5
5F
330
1
100
AcDbSymbolTableRecord
100
AcDbBlockTableRecord
  2
Left1
340
0
102
{BLKREFS
331
80
102
}
  0
BLOCK_RECORD
  5
63
330
1
100
AcDbSymbolTableRecord
100
AcDbBlockTableRecord
  2
DS-QTC_1_5-select__5
340
0
102
{BLKREFS
331
67
102
}
  0
BLOCK_RECORD
  5
66
330
1
100
AcDbSymbolTableRecord
100
AcDbBlockTableRecord
  2
Right1
340
0
102
{BLKREFS
331
81
102
}
  0
BLOCK_RECORD
  5
6A
330
1
100
AcDbSymbolTableRecord
100
AcDbBlockTableRecord
  2
DS-QTC_1_5-select__6
340
0
102
{BLKREFS
331
6E
102
}
  0
BLOCK_RECORD
  5
6D
330
1
100
AcDbSymbolTableRecord
100
AcDbBlockTableRecord
  2
Top1
340
0
102
{BLKREFS
331
82
102
}
  0
BLOCK_RECORD
  5
71
330
1
100
AcDbSymbolTableRecord
100
AcDbBlockTableRecord
  2
_rahmen
340
0
102
{BLKREFS
331
78
102
}
  0
BLOCK_RECORD
  5
74
330
1
100
AcDbSymbolTableRecord
100
AcDbBlockTableRecord
  2
_punkt
340
0
102
{BLKREFS
331
79
102
}
  0
BLOCK_RECORD
  5
77
330
1
100
AcDbSymbolTableRecord
100
AcDbBlockTableRecord
  2
A4I_CS
340
0
102
{BLKREFS
331
83
102
}
  0
BLOCK_RECORD
  5
7C
330
1
100
AcDbSymbolTableRecord
100
AcDbBlockTableRecord
  2
1
340
0
102
{BLKREFS
331
86
102
}
  0
BLOCK_RECORD
  5
C5
330
1
100
AcDbSymbolTableRecord
100
AcDbBlockTableRecord
  2
*D17
340
0
  0
BLOCK_RECORD
  5
D1
330
1
100
AcDbSymbolTableRecord
100
AcDbBlockTableRecord
  2
*D18
340
0
  0
BLOCK_RECORD
  5
16A
330
1
100
AcDbSymbolTableRecord
100
AcDbBlockTableRecord
  2
*D19
340
0
  0
ENDTAB
  0
ENDSEC
  0
SECTION
  2
BLOCKS
  0
BLOCK
  5
20
330
1F
100
AcDbEntity
  8
0
100
AcDbBlockBegin
  2
*Model_Space
 70
     0
 10
0.0
 20
0.0
 30
0.0
  3
*Model_Space
  1

  0
ENDBLK
  5
21
330
1F
100
AcDbEntity
  8
0
100
AcDbBlockEnd
  0
BLOCK
  5
1C
330
1B
100
AcDbEntity
 67
     1
  8
0
100
AcDbBlockBegin
  2
*Paper_Space
 70
     0
 10
0.0
 20
0.0
 30
0.0
  3
*Paper_Space
  1

  0
ENDBLK
  5
1D
330
1B
100
AcDbEntity
 67
     1
  8
0
100
AcDbBlockEnd
  0
BLOCK
  5
24
330
23
100
AcDbEntity
  8
0
100
AcDbBlockBegin
  2
*Paper_Space0
 70
     0
 10
0.0
 20
0.0
 30
0.0
  3
*Paper_Space0
  1

  0
ENDBLK
  5
25
330
23
100
AcDbEntity
  8
0
100
AcDbBlockEnd
  0
BLOCK
  5
48
330
47
100
AcDbEntity
  8
0
100
AcDbBlockBegin
  2
DS-QTC_1_5-select__1
 70
     0
 10
-19.30013872068723
 20
105.1500004961299
 30
0.0
  3
DS-QTC_1_5-select__1
  1

  0
LINE
  5
87
330
47
100
AcDbEntity
  8
0
  6
Continuous
 62
     7
100
AcDbLine
 10
-6.67516148333514
 20
136.7000004961209
 30
0.0
 11
2.29435907202655
 21
136.7000004961209
 31
0.0
  0
LINE
  5
88
330
47
100
AcDbEntity
  8
0
  6
Continuous
 62
     7
100
AcDbLine
 10
8.27483878456515
 20
141.7000004961209
 30
0.0
 11
-6.67516148333514
 21
141.7000004961209
 31
0.0
  0
LINE
  5
89
330
47
100
AcDbEntity
  8
0
  6
Continuous
 62
     7
100
AcDbLine
 10
2.29435907202655
 20
136.7000004961209
 30
0.0
 11
11.39972282580821
 21
133.7009554977117
 31
0.0
  0
LINE
  5
8A
330
47
100
AcDbEntity
  8
0
  6
Continuous
 62
     7
100
AcDbLine
 10
-6.0502771728539
 20
131.7000004961297
 30
0.0
 11
-6.0502771728539
 21
133.7000004961263
 31
0.0
  0
LINE
  5
8B
330
47
100
AcDbEntity
  8
0
  6
Continuous
 62
     7
100
AcDbLine
 10
-9.17516121543445
 20
158.5344560395002
 30
0.0
 11
-11.40330463721507
 21
166.8500004961228
 31
0.0
  0
LINE
  5
8C
330
47
100
AcDbEntity
  8
0
  6
Continuous
 62
     7
100
AcDbLine
 10
11.39972282580692
 20
119.7000004961222
 30
0.0
 11
11.39972282580692
 21
113.465544952751
 31
0.0
  0
LINE
  5
8D
330
47
100
AcDbEntity
  8
0
  6
Continuous
 62
     7
100
AcDbLine
 10
11.39972282580692
 20
113.465544952751
 30
0.0
 11
9.1715794040267
 21
105.1500004961299
 31
0.0
  0
LINE
  5
8E
330
47
100
AcDbEntity
  8
0
  6
Continuous
 62
     7
100
AcDbLine
 10
9.1715794040267
 20
105.1500004961299
 30
0.0
 11
-8.27842059597332
 21
105.1500004961299
 31
0.0
  0
LINE
  5
8F
330
47
100
AcDbEntity
  8
0
  6
Continuous
 62
     7
100
AcDbLine
 10
-11.33257919559514
 20
140.7000004961209
 30
0.0
 11
-8.17516148333514
 21
140.7000004961209
 31
0.0
  0
LINE
  5
90
330
47
100
AcDbEntity
  8
0
  6
Continuous
 62
     7
100
AcDbLine
 10
-8.17516148333514
 20
137.7000004961209
 30
0.0
 11
-11.33257919559514
 21
137.7000004961209
 31
0.0
  0
LINE
  5
91
330
47
100
AcDbEntity
  8
0
  6
Continuous
 62
     7
100
AcDbLine
 10
-9.17516121543445
 20
141.7000004961209
 30
0.0
 11
-9.17516121543445
 21
158.5344560395002
 31
0.0
  0
LINE
  5
92
330
47
100
AcDbEntity
  8
0
  6
Continuous
 62
     7
100
AcDbLine
 10
-8.17516148333514
 20
140.7000004961209
 30
0.0
 11
-6.67516148333514
 21
140.7000004961209
 31
0.0
  0
LINE
  5
93
330
47
100
AcDbEntity
  8
0
  6
Continuous
 62
     7
100
AcDbLine
 10
-6.67516148333514
 20
137.7000004961209
 30
0.0
 11
-8.17516148333514
 21
137.7000004961209
 31
0.0
  0
LINE
  5
94
330
47
100
AcDbEntity
  8
0
  6
Continuous
 62
     7
100
AcDbLine
 10
-6.67516148333514
 20
141.7000004961209
 30
0.0
 11
-6.67516148333514
 21
140.7000004961209
 31
0.0
  0
LINE
  5
95
330
47
100
AcDbEntity
  8
0
  6
Continuous
 62
     7
100
AcDbLine
 10
-8.17516148333514
 20
140.7000004961209
 30
0.0
 11
-8.17516148333514
 21
141.7000004961209
 31
0.0
  0
LINE
  5
96
330
47
100
AcDbEntity
  8
0
  6
Continuous
 62
     7
100
AcDbLine
 10
-8.17516148333514
 20
141.7000004961209
 30
0.0
 11
-9.17516121543445
 21
141.7000004961209
 31
0.0
  0
LINE
  5
97
330
47
100
AcDbEntity
  8
0
  6
Continuous
 62
     7
100
AcDbLine
 10
-9.26613203038025
 20
136.7000004961209
 30
0.0
 11
-8.17516148333514
 21
136.7000004961209
 31
0.0
  0
LINE
  5
98
330
47
100
AcDbEntity
  8
0
  6
Continuous
 62
     7
100
AcDbLine
 10
-8.17516148333514
 20
136.7000004961209
 30
0.0
 11
-8.17516148333514
 21
137.7000004961209
 31
0.0
  0
LINE
  5
99
330
47
100
AcDbEntity
  8
0
  6
Continuous
 62
     7
100
AcDbLine
 10
-6.67516148333514
 20
137.7000004961209
 30
0.0
 11
-6.67516148333514
 21
136.7000004961209
 31
0.0
  0
LINE
  5
9A
330
47
100
AcDbEntity
  8
0
  6
Continuous
 62
     7
100
AcDbLine
 10
-6.0502771728539
 20
133.7000004961263
 30
0.0
 11
-9.26613203038025
 21
136.7000004961209
 31
0.0
  0
LINE
  5
9B
330
47
100
AcDbEntity
  8
0
  6
Continuous
 62
     7
100
AcDbLine
 10
-6.67516148333514
 20
140.7000004961209
 30
0.0
 11
-6.67516148333514
 21
137.7000004961209
 31
0.0
  0
LINE
  5
9C
330
47
100
AcDbEntity
  8
0
  6
Continuous
 62
     7
100
AcDbLine
 10
-11.40330463721507
 20
166.8500004961228
 30
0.0
 11
6.04669536278496
 21
166.8500004961228
 31
0.0
  0
LINE
  5
9D
330
47
100
AcDbEntity
  8
0
  6
Continuous
 62
     7
100
AcDbLine
 10
-8.27842059597332
 20
105.1500004961299
 30
0.0
 11
-6.0502771728539
 21
113.4655449577487
 31
0.0
  0
LINE
  5
9E
330
47
100
AcDbEntity
  8
0
  6
Continuous
 62
     7
100
AcDbLine
 10
11.39972282580821
 20
133.7009554977117
 30
0.0
 11
11.3997228258082
 21
131.7000004961251
 31
0.0
  0
LINE
  5
9F
330
47
100
AcDbEntity
  8
0
  6
Continuous
 62
     7
100
AcDbLine
 10
8.27483878456515
 20
143.3000004961217
 30
0.0
 11
8.27483878456515
 21
141.7000004961209
 31
0.0
  0
LINE
  5
A0
330
47
100
AcDbEntity
  8
0
  6
Continuous
 62
     7
100
AcDbLine
 10
8.27483878456517
 20
158.5344560395018
 30
0.0
 11
8.27483878456517
 21
152.3000004961277
 31
0.0
  0
LINE
  5
A1
330
47
100
AcDbEntity
  8
0
  6
Continuous
 62
     7
100
AcDbLine
 10
6.04669536278496
 20
166.8500004961228
 30
0.0
 11
8.27483878456517
 21
158.5344560395018
 31
0.0
  0
LINE
  5
A2
330
47
100
AcDbEntity
  8
0
  6
Continuous
 62
     7
100
AcDbLine
 10
-6.0502771728539
 20
113.4655449577487
 30
0.0
 11
-6.05027717285389
 21
119.7000004961305
 31
0.0
  0
ARC
  5
A3
330
47
100
AcDbEntity
  8
0
  6
Continuous
 62
     7
100
AcDbCircle
 10
7.69744991201379
 20
125.70000049613
 30
0.0
 40
15.00000000000003
100
AcDbArc
 50
156.4218215217995
 51
203.5781784781998
  0
ARC
  5
A4
330
47
100
AcDbEntity
  8
0
  6
Continuous
 62
     7
100
AcDbCircle
 10
25.14744991067442
 20
125.7000004961222
 30
0.0
 40
14.99999999999998
100
AcDbArc
 50
156.421821521786
 51
203.5781784782018
  0
ARC
  5
A5
330
47
100
AcDbEntity
  8
0
  6
Continuous
 62
     7
100
AcDbCircle
 10
22.58392680581839
 20
147.8000004961247
 30
0.0
 40
14.99999999999997
100
AcDbArc
 50
162.5423968762659
 51
197.4576031237342
  0
ARC
  5
A6
330
47
100
AcDbEntity
  8
0
  6
Continuous
 62
     7
100
AcDbCircle
 10
-15.17516139363513
 20
139.2000004961209
 30
0.0
 40
4.124977327052096
100
AcDbArc
 50
21.32380919822473
 51
338.6761908017753
  0
ENDBLK
  5
49
330
47
100
AcDbEntity
  8
0
100
AcDbBlockEnd
  0
BLOCK
  5
4C
330
4A
100
AcDbEntity
  8
0
100
AcDbBlockBegin
  2
Back1
 70
     0
 10
-3.95020771043618
 20
136.00000000017
 30
0.0
  3
Back1
  1

  0
INSERT
  5
4B
330
4A
100
AcDbEntity
  8
0
100
AcDbBlockReference
  2
DS-QTC_1_5-select__1
 10
-19.30013872068723
 20
105.1500004961299
 30
0.0
  0
ENDBLK
  5
4D
330
4A
100
AcDbEntity
  8
0
100
AcDbBlockEnd
  0
BLOCK
  5
4F
330
4E
100
AcDbEntity
  8
0
100
AcDbBlockBegin
  2
DS-QTC_1_5-select__2
 70
     0
 10
-121.9999997728298
 20
105.15000049613
 30
0.0
  3
DS-QTC_1_5-select__2
  1

  0
LINE
  5
A7
330
4E
100
AcDbEntity
  8
0
  6
Continuous
 62
     7
100
AcDbLine
 10
-121.9999997728298
 20
131.7000004961252
 30
0.0
 11
-121.9999997728298
 21
133.7009554977118
 31
0.0
  0
LINE
  5
A8
330
4E
100
AcDbEntity
  8
0
  6
Continuous
 62
     7
100
AcDbLine
 10
-121.9999997728298
 20
133.7009554977118
 30
0.0
 11
-112.8946360190482
 21
136.7000004961209
 31
0.0
  0
LINE
  5
A9
330
4E
100
AcDbEntity
  8
0
  6
Continuous
 62
     7
100
AcDbLine
 10
-103.9251154636865
 20
141.7000004961209
 30
0.0
 11
-118.8751157315868
 21
141.7000004961209
 31
0.0
  0
LINE
  5
AA
330
4E
100
AcDbEntity
  8
0
  6
Continuous
 62
     7
100
AcDbLine
 10
-104.5499997741677
 20
133.7000004961263
 30
0.0
 11
-104.5499997741677
 21
131.7000004961297
 31
0.0
  0
LINE
  5
AB
330
4E
100
AcDbEntity
  8
0
  6
Continuous
 62
     7
100
AcDbLine
 10
-102.4251154636865
 20
137.7000004961209
 30
0.0
 11
-102.4251154636865
 21
136.7000004961209
 31
0.0
  0
LINE
  5
AC
330
4E
100
AcDbEntity
  8
0
  6
Continuous
 62
     7
100
AcDbLine
 10
-102.4251154636865
 20
141.7000004961209
 30
0.0
 11
-102.4251154636865
 21
140.7000004961209
 31
0.0
  0
LINE
  5
AD
330
4E
100
AcDbEntity
  8
0
  6
Continuous
 62
     7
100
AcDbLine
 10
-101.4251157315872
 20
141.7000004961209
 30
0.0
 11
-102.4251154636865
 21
141.7000004961209
 31
0.0
  0
LINE
  5
AE
330
4E
100
AcDbEntity
  8
0
  6
Continuous
 62
     7
100
AcDbLine
 10
-101.4251157315872
 20
158.5344560395002
 30
0.0
 11
-101.4251157315872
 21
141.7000004961209
 31
0.0
  0
LINE
  5
AF
330
4E
100
AcDbEntity
  8
0
  6
Continuous
 62
     7
100
AcDbLine
 10
-104.5499997741677
 20
119.7000004961305
 30
0.0
 11
-104.5499997741677
 21
113.4655449577487
 31
0.0
  0
LINE
  5
B0
330
4E
100
AcDbEntity
  8
0
  6
Continuous
 62
     7
100
AcDbLine
 10
-104.5499997741677
 20
113.4655449577487
 30
0.0
 11
-102.3218563510483
 21
105.15000049613
 31
0.0
  0
LINE
  5
B1
330
4E
100
AcDbEntity
  8
0
  6
Continuous
 62
     7
100
AcDbLine
 10
-102.3218563510483
 20
105.15000049613
 30
0.0
 11
-119.7718563510483
 21
105.15000049613
 31
0.0
  0
LINE
  5
B2
330
4E
100
AcDbEntity
  8
0
  6
Continuous
 62
     7
100
AcDbLine
 10
-119.7718563510483
 20
105.15000049613
 30
0.0
 11
-121.9999997728286
 21
113.465544952751
 31
0.0
  0
LINE
  5
B3
330
4E
100
AcDbEntity
  8
0
  6
Continuous
 62
     7
100
AcDbLine
 10
-121.9999997728286
 20
113.465544952751
 30
0.0
 11
-121.9999997728286
 21
119.7000004961222
 31
0.0
  0
LINE
  5
B4
330
4E
100
AcDbEntity
  8
0
  6
Continuous
 62
     7
100
AcDbLine
 10
-112.8946360190482
 20
136.7000004961209
 30
0.0
 11
-103.9251154636865
 21
136.7000004961209
 31
0.0
  0
LINE
  5
B5
330
4E
100
AcDbEntity
  8
0
  6
Continuous
 62
     7
100
AcDbLine
 10
-103.9251154636865
 20
136.7000004961209
 30
0.0
 11
-103.9251154636865
 21
141.7000004961209
 31
0.0
  0
LINE
  5
B6
330
4E
100
AcDbEntity
  8
0
  6
Continuous
 62
     7
100
AcDbLine
 10
-101.3341449166414
 20
136.7000004961209
 30
0.0
 11
-104.5499997741677
 21
133.7000004961263
 31
0.0
  0
LINE
  5
B7
330
4E
100
AcDbEntity
  8
0
  6
Continuous
 62
     7
100
AcDbLine
 10
-102.4251154636865
 20
136.7000004961209
 30
0.0
 11
-101.3341449166414
 21
136.7000004961209
 31
0.0
  0
LINE
  5
B8
330
4E
100
AcDbEntity
  8
0
  6
Continuous
 62
     7
100
AcDbLine
 10
-102.4251154636865
 20
137.7000004961209
 30
0.0
 11
-99.2676977514262
 21
137.7000004961209
 31
0.0
  0
LINE
  5
B9
330
4E
100
AcDbEntity
  8
0
  6
Continuous
 62
     7
100
AcDbLine
 10
-99.26769775142623
 20
140.7000004961209
 30
0.0
 11
-102.4251154636865
 21
140.7000004961209
 31
0.0
  0
LINE
  5
BA
330
4E
100
AcDbEntity
  8
0
  6
Continuous
 62
     7
100
AcDbLine
 10
-99.19697230980654
 20
166.8500004961228
 30
0.0
 11
-101.4251157315872
 21
158.5344560395002
 31
0.0
  0
LINE
  5
BB
330
4E
100
AcDbEntity
  8
0
  6
Continuous
 62
     7
100
AcDbLine
 10
-116.6469723098066
 20
166.8500004961228
 30
0.0
 11
-99.19697230980654
 21
166.8500004961228
 31
0.0
  0
LINE
  5
BC
330
4E
100
AcDbEntity
  8
0
  6
Continuous
 62
     7
100
AcDbLine
 10
-118.8751157315868
 20
141.7000004961209
 30
0.0
 11
-118.8751157315868
 21
143.3000004961218
 31
0.0
  0
LINE
  5
BD
330
4E
100
AcDbEntity
  8
0
  6
Continuous
 62
     7
100
AcDbLine
 10
-118.8751157315868
 20
152.3000004961278
 30
0.0
 11
-118.8751157315868
 21
158.5344560395018
 31
0.0
  0
LINE
  5
BE
330
4E
100
AcDbEntity
  8
0
  6
Continuous
 62
     7
100
AcDbLine
 10
-118.8751157315868
 20
158.5344560395018
 30
0.0
 11
-116.6469723098066
 21
166.8500004961228
 31
0.0
  0
LINE
  5
BF
330
4E
100
AcDbEntity
  8
1
  6
DOT_CENTER
 62
     2
100
AcDbLine
 10
-91.30013825709709
 20
139.2000004961209
 30
0.0
 11
-99.96259061314353
 21
139.2000004961209
 31
0.0
  0
LINE
  5
C0
330
4E
100
AcDbEntity
  8
1
  6
DOT_CENTER
 62
     2
100
AcDbLine
 10
-95.42511555338649
 20
143.737475555878
 30
0.0
 11
-95.42511555338649
 21
134.6625254363639
 31
0.0
  0
ARC
  5
C1
330
4E
100
AcDbEntity
  8
0
  6
Continuous
 62
     7
100
AcDbCircle
 10
-118.2977268590354
 20
125.7000004961301
 30
0.0
 40
15.0
100
AcDbArc
 50
336.4218215217998
 51
23.57817847820013
  0
ARC
  5
C2
330
4E
100
AcDbEntity
  8
0
  6
Continuous
 62
     7
100
AcDbCircle
 10
-133.18420375284
 20
147.8000004961247
 30
0.0
 40
14.99999999999993
100
AcDbArc
 50
342.5423968762662
 51
17.45760312373451
  0
ARC
  5
C3
330
4E
100
AcDbEntity
  8
0
  6
Continuous
 62
     7
100
AcDbCircle
 10
-135.7477268576961
 20
125.7000004961222
 30
0.0
 40
14.99999999999999
100
AcDbArc
 50
336.4218215217981
 51
23.57817847821418
  0
ARC
  5
C4
330
4E
100
AcDbEntity
  8
0
  6
Continuous
 62
     7
100
AcDbCircle
 10
-95.42511555338649
 20
139.2000004961209
 30
0.0
 40
4.124977327051831
100
AcDbArc
 50
201.3238091982261
 51
158.676190801774
  0
ENDBLK
  5
50
330
4E
100
AcDbEntity
  8
0
100
AcDbBlockEnd
  0
BLOCK
  5
53
330
51
100
AcDbEntity
  8
0
100
AcDbBlockBegin
  2
Front1
 70
     0
 10
-106.6500692365854
 20
136.00000000017
 30
0.0
  3
Front1
  1

  0
INSERT
  5
52
330
51
100
AcDbEntity
  8
0
100
AcDbBlockReference
  2
DS-QTC_1_5-select__2
 10
-121.9999997728298
 20
105.15000049613
 30
0.0
  0
DIMENSION
  5
D0
330
51
100
AcDbEntity
  8
1
100
AcDbDimension
  2
*D17
 10
-133.5236250401004
 20
166.8500004961227
 30
0.0
 11
-136.9486250401004
 21
136.614158504438
 31
0.0
 70
    32
  1
<>
 71
     5
 42
-1.0
 53
90.0
  3
ME10_DIM_10
100
AcDbAlignedDimension
 13
-119.7718563510483
 23
105.15000049613
 33
0.0
 14
-116.6469723098066
 24
166.8500004961228
 34
0.0
 50
90.0
100
AcDbRotatedDimension
  0
DIMENSION
  5
DB
330
51
100
AcDbEntity
  8
1
100
AcDbDimension
  2
*D18
 10
-91.30013825709703
 20
92.96484452524903
 30
0.0
 11
-107.2653682079319
 21
96.38984452524903
 31
0.0
 70
    32
  1
<>
 71
     5
 42
-1.0
 53
0.00013888888889
  3
ME10_DIM_11
100
AcDbAlignedDimension
 13
-121.9999997728286
 23
113.465544952751
 33
0.0
 14
-91.30013825709709
 24
139.2000004961209
 34
0.0
100
AcDbRotatedDimension
  0
ENDBLK
  5
54
330
51
100
AcDbEntity
  8
0
100
AcDbBlockEnd
  0
BLOCK
  5
56
330
55
100
AcDbEntity
  8
0
100
AcDbBlockBegin
  2
DS-QTC_1_5-select__3
 70
     0
 10
-11.79342979038169
 20
36.76805079974765
 30
0.0
  3
DS-QTC_1_5-select__3
  1

  0
LINE
  5
DC
330
55
100
AcDbEntity
  8
0
  6
Continuous
 62
     7
100
AcDbLine
 10
5.65891729747787
 20
68.01408138432839
 30
0.0
 11
5.15891729747786
 21
67.58106868243617
 31
0.0
  0
LINE
  5
DD
330
55
100
AcDbEntity
  8
0
  6
Continuous
 62
     7
100
AcDbLine
 10
7.8933212466542
 20
66.79171425437112
 30
0.0
 11
5.15891729747786
 21
67.58106868243617
 31
0.0
  0
LINE
  5
DE
330
55
100
AcDbEntity
  8
0
  6
Continuous
 62
     7
100
AcDbLine
 10
6.10372550599953
 20
63.84422443053714
 30
0.0
 11
6.60372550599953
 21
64.27723713242936
 31
0.0
  0
LINE
  5
DF
330
55
100
AcDbEntity
  8
0
  6
Continuous
 62
     7
100
AcDbLine
 10
6.60372550599953
 20
64.27723713242936
 30
0.0
 11
5.65891729747786
 21
64.54997976919064
 31
0.0
  0
LINE
  5
E0
330
55
100
AcDbEntity
  8
0
  6
Continuous
 62
     7
100
AcDbLine
 10
5.65891729747786
 20
64.54997976919064
 30
0.0
 11
5.65891729747786
 21
64.83865490378605
 31
0.0
  0
LINE
  5
E1
330
55
100
AcDbEntity
  8
0
  6
Continuous
 62
     7
100
AcDbLine
 10
5.15891729747786
 20
64.11696706729842
 30
0.0
 11
5.65891729747786
 21
64.54997976919064
 31
0.0
  0
LINE
  5
E2
330
55
100
AcDbEntity
  8
0
  6
Continuous
 62
     7
100
AcDbLine
 10
5.15891729747786
 20
64.98299247108285
 30
0.0
 11
5.15891729747786
 21
64.11696706729842
 31
0.0
  0
LINE
  5
E3
330
55
100
AcDbEntity
  8
0
  6
Continuous
 62
     7
100
AcDbLine
 10
3.8598791918012
 20
65.06931733648804
 30
0.0
 11
-3.40795346890873
 21
67.16735990803106
 31
0.0
  0
LINE
  5
E4
330
55
100
AcDbEntity
  8
0
  6
Continuous
 62
     7
100
AcDbLine
 10
-3.90795346890873
 20
66.73434720613884
 30
0.0
 11
-3.40795346890873
 21
67.16735990803106
 31
0.0
  0
LINE
  5
E5
330
55
100
AcDbEntity
  8
0
  6
Continuous
 62
     7
100
AcDbLine
 10
-3.90795346890873
 20
66.73434720613884
 30
0.0
 11
3.8598791918012
 21
64.49196706729842
 31
0.0
  0
LINE
  5
E6
330
55
100
AcDbEntity
  8
0
  6
Continuous
 62
     7
100
AcDbLine
 10
5.15891729747786
 20
64.11696706729842
 30
0.0
 11
6.10372550599953
 21
63.84422443053714
 31
0.0
  0
LINE
  5
E7
330
55
100
AcDbEntity
  8
0
  6
Continuous
 62
     7
100
AcDbLine
 10
5.15891729747786
 20
64.98299247108285
 30
0.0
 11
7.89332124665421
 21
64.19363804301778
 31
0.0
  0
LINE
  5
E8
330
55
100
AcDbEntity
  8
0
  6
Continuous
 62
     7
100
AcDbLine
 10
14.92152659502813
 20
62.27986623978065
 30
0.0
 11
13.92152659502811
 21
61.4138408359962
 31
0.0
  0
LINE
  5
E9
330
55
100
AcDbEntity
  8
0
  6
Continuous
 62
     7
100
AcDbLine
 10
-11.79342979038169
 20
66.41343898886926
 30
0.0
 11
-11.29342979038169
 21
66.84645169076147
 31
0.0
  0
LINE
  5
EA
330
55
100
AcDbEntity
  8
0
  6
Continuous
 62
     7
100
AcDbLine
 10
-11.79342979038169
 20
66.41343898886926
 30
0.0
 11
-3.90795346890873
 21
66.73434720613884
 31
0.0
  0
LINE
  5
EB
330
55
100
AcDbEntity
  8
0
  6
Continuous
 62
     7
100
AcDbLine
 10
3.8598791918012
 20
68.8220940862206
 30
0.0
 11
-9.08720082678462
 21
72.55959415319568
 31
0.0
  0
LINE
  5
EC
330
55
100
AcDbEntity
  8
0
  6
Continuous
 62
     7
100
AcDbLine
 10
-9.08720082678462
 20
72.55959415319568
 30
0.0
 11
-9.08720082678461
 21
73.94523479925148
 31
0.0
  0
LINE
  5
ED
330
55
100
AcDbEntity
  8
0
  6
Continuous
 62
     7
100
AcDbLine
 10
-9.08720082678464
 20
81.73946343331664
 30
0.0
 11
-9.08720082678464
 21
87.13866031264334
 31
0.0
  0
LINE
  5
EE
330
55
100
AcDbEntity
  8
0
  6
Continuous
 62
     7
100
AcDbLine
 10
-11.79342979038167
 20
64.68056112566575
 30
0.0
 11
-11.79342979038169
 21
66.41343898886926
 31
0.0
  0
LINE
  5
EF
330
55
100
AcDbEntity
  8
0
  6
Continuous
 62
     7
100
AcDbLine
 10
-9.08720082678464
 20
87.13866031264334
 30
0.0
 11
-7.15757202024778
 21
93.7830972029309
 31
0.0
  0
LINE
  5
F0
330
55
100
AcDbEntity
  8
0
  6
Continuous
 62
     7
100
AcDbLine
 10
-7.15757202024778
 20
93.7830972029309
 30
0.0
 11
-6.65757202024777
 21
94.21610990482313
 31
0.0
  0
LINE
  5
F1
330
55
100
AcDbEntity
  8
0
  6
Continuous
 62
     7
100
AcDbLine
 10
5.24834231219477
 20
36.76805079974765
 30
0.0
 11
5.74834231219477
 21
37.20106350163987
 31
0.0
  0
LINE
  5
F2
330
55
100
AcDbEntity
  8
0
  6
Continuous
 62
     7
100
AcDbLine
 10
6.10372550599953
 20
63.84422443053714
 30
0.0
 11
3.31871350449812
 21
62.05011193357004
 31
0.0
  0
LINE
  5
F3
330
55
100
AcDbEntity
  8
0
  6
Continuous
 62
     7
100
AcDbLine
 10
5.74834231219477
 20
37.20106350163987
 30
0.0
 11
3.81871350449812
 21
44.95957210748059
 31
0.0
  0
LINE
  5
F4
330
55
100
AcDbEntity
  8
0
  6
Continuous
 62
     7
100
AcDbLine
 10
3.31871350449812
 20
44.52655940558836
 30
0.0
 11
5.24834231219477
 21
36.76805079974765
 31
0.0
  0
LINE
  5
F5
330
55
100
AcDbEntity
  8
0
  6
Continuous
 62
     7
100
AcDbLine
 10
5.24834231219477
 20
36.76805079974765
 30
0.0
 11
-9.86380098384372
 21
41.13055079974765
 31
0.0
  0
LINE
  5
F6
330
55
100
AcDbEntity
  8
0
  6
Continuous
 62
     7
100
AcDbLine
 10
3.81871350449812
 20
60.75107382789634
 30
0.0
 11
3.81871350449812
 21
62.37221332774714
 31
0.0
  0
LINE
  5
F7
330
55
100
AcDbEntity
  8
0
  6
Continuous
 62
     7
100
AcDbLine
 10
3.31871350449812
 20
44.52655940558836
 30
0.0
 11
3.81871350449812
 21
44.95957210748059
 31
0.0
  0
LINE
  5
F8
330
55
100
AcDbEntity
  8
0
  6
Continuous
 62
     7
100
AcDbLine
 10
3.81871350449812
 20
44.95957210748059
 30
0.0
 11
3.81871350449812
 21
50.35876898248376
 31
0.0
  0
LINE
  5
F9
330
55
100
AcDbEntity
  8
0
  6
Continuous
 62
     7
100
AcDbLine
 10
3.31871350449812
 20
49.92575628059154
 30
0.0
 11
3.81871350449812
 21
50.35876898248376
 31
0.0
  0
LINE
  5
FA
330
55
100
AcDbEntity
  8
0
  6
Continuous
 62
     7
100
AcDbLine
 10
3.8598791918012
 20
64.49196706729842
 30
0.0
 11
3.8598791918012
 21
68.8220940862206
 31
0.0
  0
LINE
  5
FB
330
55
100
AcDbEntity
  8
0
  6
Continuous
 62
     7
100
AcDbLine
 10
3.31871350449812
 20
49.92575628059154
 30
0.0
 11
3.31871350449812
 21
44.52655940558836
 31
0.0
  0
LINE
  5
FC
330
55
100
AcDbEntity
  8
0
  6
Continuous
 62
     7
100
AcDbLine
 10
3.31871350449812
 20
62.05011193357004
 30
0.0
 11
3.31871350449812
 21
60.31806112600412
 31
0.0
  0
LINE
  5
FD
330
55
100
AcDbEntity
  8
0
  6
Continuous
 62
     7
100
AcDbLine
 10
3.31871350449812
 20
60.31806112600412
 30
0.0
 11
3.81871350449812
 21
60.75107382789634
 31
0.0
  0
LINE
  5
FE
330
55
100
AcDbEntity
  8
0
  6
Continuous
 62
     7
100
AcDbLine
 10
6.5249424692535
 20
68.630106855088
 30
0.0
 11
6.5249424692535
 21
83.20917301453423
 31
0.0
  0
LINE
  5
FF
330
55
100
AcDbEntity
  8
0
  6
Continuous
 62
     7
100
AcDbLine
 10
6.0249424692535
 20
82.77616031264202
 30
0.0
 11
6.5249424692535
 21
83.20917301453423
 31
0.0
  0
LINE
  5
100
330
55
100
AcDbEntity
  8
0
  6
Continuous
 62
     7
100
AcDbLine
 10
7.9545712757907
 20
89.4205972029309
 30
0.0
 11
8.4545712757907
 21
89.85360990482312
 31
0.0
  0
LINE
  5
101
330
55
100
AcDbEntity
  8
0
  6
Continuous
 62
     7
100
AcDbLine
 10
7.9545712757907
 20
89.4205972029309
 30
0.0
 11
6.0249424692535
 21
82.77616031264202
 31
0.0
  0
LINE
  5
102
330
55
100
AcDbEntity
  8
0
  6
Continuous
 62
     7
100
AcDbLine
 10
6.5249424692535
 20
83.20917301453423
 30
0.0
 11
8.4545712757907
 21
89.85360990482312
 31
0.0
  0
LINE
  5
103
330
55
100
AcDbEntity
  8
0
  6
Continuous
 62
     7
100
AcDbLine
 10
6.0249424692535
 20
82.77616031264202
 30
0.0
 11
6.0249424692535
 21
68.19709415319578
 31
0.0
  0
LINE
  5
104
330
55
100
AcDbEntity
  8
0
  6
Continuous
 62
     7
100
AcDbLine
 10
8.4545712757907
 20
89.85360990482312
 30
0.0
 11
-6.65757202024777
 21
94.21610990482313
 31
0.0
  0
LINE
  5
105
330
55
100
AcDbEntity
  8
0
  6
Continuous
 62
     7
100
AcDbLine
 10
6.5249424692535
 20
68.630106855088
 30
0.0
 11
6.0249424692535
 21
68.19709415319578
 31
0.0
  0
LINE
  5
106
330
55
100
AcDbEntity
  8
0
  6
Continuous
 62
     7
100
AcDbLine
 10
5.65891729747787
 20
68.01408138432839
 30
0.0
 11
5.65891729747787
 21
68.3027565189232
 31
0.0
  0
LINE
  5
107
330
55
100
AcDbEntity
  8
0
  6
Continuous
 62
     7
100
AcDbLine
 10
-3.40795346890873
 20
67.16735990803106
 30
0.0
 11
-11.29342979038169
 21
66.84645169076147
 31
0.0
  0
LINE
  5
108
330
55
100
AcDbEntity
  8
0
  6
Continuous
 62
     7
100
AcDbLine
 10
5.15891729747786
 20
68.44709408622062
 30
0.0
 11
5.15891729747786
 21
67.58106868243617
 31
0.0
  0
LINE
  5
109
330
55
100
AcDbEntity
  8
0
  6
Continuous
 62
     7
100
AcDbLine
 10
6.0249424692535
 20
68.19709415319578
 30
0.0
 11
5.15891729747786
 21
68.44709408622062
 31
0.0
  0
LINE
  5
10A
330
55
100
AcDbEntity
  8
0
  6
Continuous
 62
     7
100
AcDbLine
 10
8.62033983598852
 20
67.73654260362134
 30
0.0
 11
6.2749424692535
 21
68.4136005041419
 31
0.0
  0
LINE
  5
10B
330
55
100
AcDbEntity
  8
0
  6
Continuous
 62
     7
100
AcDbLine
 10
9.52066349754479
 20
68.5162457661573
 30
0.0
 11
8.52066349754477
 21
67.65022036237285
 31
0.0
  0
LINE
  5
10C
330
55
100
AcDbEntity
  8
0
  6
Continuous
 62
     7
100
AcDbLine
 10
-11.79342979038056
 20
48.88905940092536
 30
0.0
 11
-11.79342979038056
 21
54.28825628024956
 31
0.0
  0
LINE
  5
10D
330
55
100
AcDbEntity
  8
0
  6
Continuous
 62
     7
100
AcDbLine
 10
-9.86380098384372
 20
41.13055079974765
 30
0.0
 11
-11.79342979038056
 21
48.88905940092536
 31
0.0
  0
LINE
  5
10E
330
55
100
AcDbEntity
  8
0
  6
Continuous
 62
     7
100
AcDbLine
 10
-7.15757202024778
 20
93.7830972029309
 30
0.0
 11
7.9545712757907
 21
89.4205972029309
 31
0.0
  0
SPLINE
  5
10F
330
55
100
AcDbEntity
  8
0
  6
Continuous
 62
     7
100
AcDbSpline
210
0.0
220
0.0
230
1.0
 70
     8
 71
     3
 72
     9
 73
     5
 74
     3
 42
0.000000001
 43
0.0000000001
 44
0.00000001
 40
0.0
 40
0.0
 40
0.0
 40
0.0
 40
0.5291866949440484
 40
1.069896739252852
 40
1.069896739252852
 40
1.069896739252852
 40
1.069896739252852
 10
8.520663497544774
 20
67.65022036237285
 30
0.0
 10
8.393466820341937
 20
67.52608750616861
 30
0.0
 10
8.136303699270357
 20
67.27511871572966
 30
0.0
 10
7.974894877846782
 20
66.95400194384949
 30
0.0
 10
7.893321246654196
 20
66.79171425437112
 30
0.0
 11
8.520663497544774
 21
67.65022036237285
 31
0.0
 11
8.16249916283461
 21
67.26066052278252
 31
0.0
 11
7.893321246654196
 21
66.79171425437112
 31
0.0
  0
SPLINE
  5
110
330
55
100
AcDbEntity
  8
0
  6
Continuous
 62
     7
100
AcDbSpline
210
0.0
220
0.0
230
1.0
 70
     8
 71
     3
 72
    17
 73
    13
 74
    11
 42
0.000000001
 43
0.0000000001
 44
0.00000001
 40
0.0
 40
0.0
 40
0.0
 40
0.0
 40
0.820328137268596
 40
1.661075272955811
 40
2.507397587573939
 40
3.343811158849339
 40
4.155976882499713
 40
4.932508180326654
 40
5.666800764903392
 40
6.358757434002089
 40
7.015963020958673
 40
7.653415577327736
 40
7.653415577327736
 40
7.653415577327736
 40
7.653415577327736
 10
7.89332124665421
 20
64.19363804301778
 30
0.0
 10
7.996845991884315
 20
63.93990616006234
 30
0.0
 10
8.206472356483905
 20
63.42612669456169
 30
0.0
 10
8.675523450070477
 20
62.72789170035944
 30
0.0
 10
9.239874176448938
 20
62.10085174843596
 30
0.0
 10
9.889018540845152
 20
61.57511751004503
 30
0.0
 10
10.59340593979112
 20
61.17101835811047
 30
0.0
 10
11.32535664602898
 20
60.90612789772297
 30
0.0
 10
12.05638800176516
 20
60.79111891660516
 30
0.0
 10
12.75370999082322
 20
60.83661305672889
 30
0.0
 10
13.39902626062381
 20
61.03052497958074
 30
0.0
 10
13.74914042205913
 20
61.28737516301579
 30
0.0
 10
13.92152659502811
 20
61.4138408359962
 30
0.0
 11
7.89332124665421
 21
64.19363804301778
 31
0.0
 11
8.228554335445853
 21
63.44493448046952
 31
0.0
 11
8.68980389747859
 21
62.74200874759564
 31
0.0
 11
9.257647242876132
 21
62.1144616220212
 31
0.0
 11
9.908171758385222
 21
61.58871879779363
 31
0.0
 11
10.61398405088158
 21
61.18692012778961
 31
0.0
 11
11.34536190585456
 21
60.92598471243738
 31
0.0
 11
12.07150682872708
 21
60.81690147506813
 31
0.0
 11
12.7618407455078
 21
60.8642630500152
 31
0.0
 11
13.38729318337985
 21
61.06607592929078
 31
0.0
 11
13.92152659502811
 21
61.4138408359962
 31
0.0
  0
SPLINE
  5
111
330
55
100
AcDbEntity
  8
0
  6
Continuous
 62
     7
100
AcDbSpline
210
0.0
220
0.0
230
1.0
 70
     8
 71
     3
 72
    21
 73
    17
 74
    15
 42
0.000000001
 43
0.0000000001
 44
0.00000001
 40
0.0
 40
0.0
 40
0.0
 40
0.0
 40
0.696145554784162
 40
1.417712306945398
 40
2.182957920602561
 40
2.999402572190185
 40
3.864020149109693
 40
4.765410902473
 40
5.686576214185457
 40
6.607741525897904
 40
7.509132279261205
 40
8.373749856180707
 40
9.190194507768346
 40
9.955440121425513
 40
10.67700687358674
 40
11.3731524283709
 40
11.3731524283709
 40
11.3731524283709
 40
11.3731524283709
 10
13.92152659502811
 20
61.4138408359962
 30
0.0
 10
14.08400437446521
 20
61.58189566655983
 30
0.0
 10
14.41489313581964
 20
61.92414220655043
 30
0.0
 10
14.70252105594942
 20
62.60881096390745
 30
0.0
 10
14.82205167013781
 20
63.37253094506514
 30
0.0
 10
14.75806582959891
 20
64.19257901585438
 30
0.0
 10
14.52043864319185
 20
65.02506571149875
 30
0.0
 10
14.12075618589478
 20
65.83189819269177
 30
0.0
 10
13.57915817491468
 20
66.57417317230397
 30
0.0
 10
12.92186761769727
 20
67.21625546784617
 30
0.0
 10
12.1804080540979
 20
67.72710029254945
 30
0.0
 10
11.3904066501668
 20
68.08121688342248
 30
0.0
 10
10.58791038552618
 20
68.26169616597997
 30
0.0
 10
9.814947834858891
 20
68.25249439366871
 30
0.0
 10
9.096211803927556
 20
68.0656264039539
 30
0.0
 10
8.710205754603543
 20
67.78702382605577
 30
0.0
 10
8.520663497544774
 20
67.65022036237285
 30
0.0
 11
13.92152659502811
 21
61.4138408359962
 31
0.0
 11
14.3742176785701
 21
61.94269755000187
 31
0.0
 11
14.66879867690189
 21
62.60139370153912
 31
0.0
 11
14.79049670825826
 21
63.35690044667069
 31
0.0
 11
14.7332107714221
 21
64.1713328823684
 31
0.0
 11
14.49981196295429
 21
65.00385228207041
 31
0.0
 11
14.10200527330649
 21
65.81271266968032
 31
0.0
 11
13.55973712148011
 21
66.5573540466614
 31
0.0
 11
12.9002001726843
 21
67.20043766639569
 31
0.0
 11
12.15646553545101
 21
67.70971566351754
 31
0.0
 11
11.36582770890606
 21
68.05965191758484
 31
0.0
 11
10.56793235247664
 21
68.23269778163275
 31
0.0
 11
9.802789166266372
 21
68.22017750322851
 31
0.0
 11
9.108766051526054
 21
68.02271737855953
 31
0.0
 11
8.520663497544774
 21
67.65022036237285
 31
0.0
  0
SPLINE
  5
112
330
55
100
AcDbEntity
  8
0
  6
Continuous
 62
     7
100
AcDbSpline
210
0.0
220
0.0
230
1.0
 70
     8
 71
     3
 72
    21
 73
    17
 74
    15
 42
0.000000001
 43
0.0000000001
 44
0.00000001
 40
0.0
 40
0.0
 40
0.0
 40
0.0
 40
0.6961455547841424
 40
1.417712306945378
 40
2.18295792060254
 40
2.999402572190179
 40
3.864020149109687
 40
4.765410902472989
 40
5.68657621418544
 40
6.607741525897881
 40
7.509132279261192
 40
8.3737498561807
 40
9.190194507768323
 40
9.9554401214255
 40
10.67700687358674
 40
11.37315242837088
 40
11.37315242837088
 40
11.37315242837088
 40
11.37315242837088
 10
9.520663497544788
 20
68.5162457661573
 30
0.0
 10
9.710205754603553
 20
68.65304922984024
 30
0.0
 10
10.09621180392756
 20
68.93165180773835
 30
0.0
 10
10.81494783485889
 20
69.11851979745317
 30
0.0
 10
11.58791038552619
 20
69.12772156976438
 30
0.0
 10
12.3904066501668
 20
68.9472422872069
 30
0.0
 10
13.18040805409791
 20
68.5931256963339
 30
0.0
 10
13.92186761769729
 20
68.08228087163062
 30
0.0
 10
14.57915817491468
 20
67.44019857608842
 30
0.0
 10
15.12075618589479
 20
66.69792359647622
 30
0.0
 10
15.52043864319186
 20
65.89109111528322
 30
0.0
 10
15.75806582959891
 20
65.05860441963883
 30
0.0
 10
15.82205167013781
 20
64.2385563488496
 30
0.0
 10
15.70252105594943
 20
63.47483636769191
 30
0.0
 10
15.41489313581966
 20
62.79016761033488
 30
0.0
 10
15.08400437446523
 20
62.44792107034426
 30
0.0
 10
14.92152659502813
 20
62.27986623978065
 30
0.0
 11
9.520663497544788
 21
68.5162457661573
 31
0.0
 11
10.10876605152606
 21
68.88874278234398
 31
0.0
 11
10.80278916626638
 21
69.08620290701296
 31
0.0
 11
11.56793235247664
 21
69.09872318541719
 31
0.0
 11
12.36582770890606
 21
68.92567732136929
 31
0.0
 11
13.15646553545103
 21
68.57574106730199
 31
0.0
 11
13.90020017268431
 21
68.06646307018013
 31
0.0
 11
14.55973712148012
 21
67.42337945044584
 31
0.0
 11
15.10200527330649
 21
66.67873807346477
 31
0.0
 11
15.4998119629543
 21
65.86987768585486
 31
0.0
 11
15.7332107714221
 21
65.03735828615285
 31
0.0
 11
15.79049670825826
 21
64.22292585045514
 31
0.0
 11
15.6687986769019
 21
63.46741910532356
 31
0.0
 11
15.37421767857011
 21
62.8087229537863
 31
0.0
 11
14.92152659502813
 21
62.27986623978065
 31
0.0
  0
SPLINE
  5
113
330
55
100
AcDbEntity
  8
0
  6
Continuous
 62
     7
100
AcDbSpline
210
0.0
220
0.0
230
1.0
 70
     8
 71
     3
 72
    11
 73
     7
 74
     5
 42
0.000000001
 43
0.0000000001
 44
0.00000001
 40
0.0
 40
0.0
 40
0.0
 40
0.0
 40
1.851422095564426
 40
3.785240840664035
 40
5.805674702656539
 40
7.908935340366155
 40
7.908935340366155
 40
7.908935340366155
 40
7.908935340366155
 10
-9.08720082678461
 20
73.94523479925148
 30
0.0
 10
-8.916359134650278
 20
74.5399508936317
 30
0.0
 10
-8.567072537693235
 20
75.75585063952539
 30
0.0
 10
-8.44573927258425
 20
77.69949368150847
 30
0.0
 10
-8.583700277949784
 20
79.7218418948963
 30
0.0
 10
-8.917134896879466
 20
81.05797723923588
 30
0.0
 10
-9.087200826784638
 20
81.73946343331664
 30
0.0
 11
-9.08720082678461
 21
73.94523479925148
 31
0.0
 11
-8.639311789402058
 21
75.74166436655092
 31
0.0
 11
-8.488853501410958
 21
77.66962112159737
 31
0.0
 11
-8.639311789402061
 21
79.68444500971728
 31
0.0
 11
-9.087200826784638
 21
81.73946343331664
 31
0.0
  0
SPLINE
  5
114
330
55
100
AcDbEntity
  8
0
  6
Continuous
 62
     7
100
AcDbSpline
210
0.0
220
0.0
230
1.0
 70
     8
 71
     3
 72
    13
 73
     9
 74
     7
 42
0.000000001
 43
0.0000000001
 44
0.00000001
 40
0.0
 40
0.0
 40
0.0
 40
0.0
 40
1.618800875635171
 40
3.29666296063552
 40
5.042045806820591
 40
6.857713221237752
 40
8.741157514550059
 40
10.68531582207248
 40
10.68531582207248
 40
10.68531582207248
 40
10.68531582207248
 10
-11.79342979038056
 20
54.28825628024956
 30
0.0
 10
-11.57652310335879
 20
54.78367698240631
 30
0.0
 10
-11.13479600171361
 20
55.79259358979608
 30
0.0
 10
-10.789174095897
 20
57.44830911202904
 30
0.0
 10
-10.66672185059714
 20
59.19473840315685
 30
0.0
 10
-10.7976347778345
 20
61.00990340409903
 30
0.0
 10
-11.15462601032178
 20
62.86345175968866
 30
0.0
 10
-11.57825530163555
 20
64.06848652364758
 30
0.0
 10
-11.79342979038167
 20
64.68056112566575
 30
0.0
 11
-11.79342979038056
 21
54.28825628024956
 31
0.0
 11
-11.19473133976771
 21
55.7922763751145
 31
0.0
 11
-10.83095314905906
 21
57.43022833158746
 31
0.0
 11
-10.70892970501637
 21
59.17134049484702
 31
0.0
 11
-10.83095314905944
 21
60.98290292637215
 31
0.0
 11
-11.19473133976846
 21
62.83088231917608
 31
0.0
 11
-11.79342979038167
 21
64.68056112566575
 31
0.0
  0
SPLINE
  5
115
330
55
100
AcDbEntity
  8
0
  6
Continuous
 62
     7
100
AcDbSpline
210
0.0
220
0.0
230
1.0
 70
     8
 71
     3
 72
    13
 73
     9
 74
     7
 42
0.000000001
 43
0.0000000001
 44
0.00000001
 40
0.0
 40
0.0
 40
0.0
 40
0.0
 40
1.618800875634629
 40
3.296662960634376
 40
5.042045806818817
 40
6.857713221235314
 40
8.741157514546911
 40
10.68531582206861
 40
10.68531582206861
 40
10.68531582206861
 40
10.68531582206861
 10
3.31871350449812
 20
49.92575628059154
 30
0.0
 10
3.535620191519804
 20
50.42117698274812
 30
0.0
 10
3.977347293164822
 20
51.43009359013753
 30
0.0
 10
4.322969198981374
 20
53.08580911236992
 30
0.0
 10
4.445421444281365
 20
54.83223840349705
 30
0.0
 10
4.314508517044287
 20
56.6474034044386
 30
0.0
 10
3.95751728455742
 20
58.5009517600276
 30
0.0
 10
3.533887993244045
 20
59.70598652398614
 30
0.0
 10
3.31871350449812
 20
60.31806112600412
 30
0.0
 11
3.31871350449812
 21
49.92575628059154
 31
0.0
 11
3.917411955110758
 21
51.42977637545598
 31
0.0
 11
4.281190145819352
 21
53.06772833192834
 31
0.0
 11
4.403213589862151
 21
54.80884049518725
 31
0.0
 11
4.281190145819366
 21
56.62040292671174
 31
0.0
 11
3.91741195511077
 21
58.46838231951504
 31
0.0
 11
3.31871350449812
 21
60.31806112600412
 31
0.0
  0
SPLINE
  5
116
330
55
100
AcDbEntity
  8
0
  6
Continuous
 62
     7
100
AcDbSpline
210
0.0
220
0.0
230
1.0
 70
     8
 71
     3
 72
    13
 73
     9
 74
     7
 42
0.000000001
 43
0.0000000001
 44
0.00000001
 40
0.0
 40
0.0
 40
0.0
 40
0.0
 40
1.618800875634639
 40
3.2966629606344
 40
5.042045806818847
 40
6.85771322123533
 40
8.74115751454692
 40
10.68531582206862
 40
10.68531582206862
 40
10.68531582206862
 40
10.68531582206862
 10
3.81871350449812
 20
50.35876898248376
 30
0.0
 10
4.03562019151981
 20
50.85418968464035
 30
0.0
 10
4.477347293164838
 20
51.86310629202976
 30
0.0
 10
4.822969198981383
 20
53.51882181426215
 30
0.0
 10
4.945421444281358
 20
55.26525110538928
 30
0.0
 10
4.814508517044278
 20
57.08041610633085
 30
0.0
 10
4.457517284557421
 20
58.93396446191983
 30
0.0
 10
4.033887993244045
 20
60.13899922587836
 30
0.0
 10
3.81871350449812
 20
60.75107382789634
 30
0.0
 11
3.81871350449812
 21
50.35876898248376
 31
0.0
 11
4.41741195511077
 21
51.8627890773482
 31
0.0
 11
4.781190145819359
 21
53.50074103382057
 31
0.0
 11
4.903213589862147
 21
55.2418531970795
 31
0.0
 11
4.781190145819359
 21
57.05341562860397
 31
0.0
 11
4.41741195511077
 21
58.90139502140726
 31
0.0
 11
3.81871350449812
 21
60.75107382789634
 31
0.0
  0
ENDBLK
  5
57
330
55
100
AcDbEntity
  8
0
100
AcDbBlockEnd
  0
BLOCK
  5
5A
330
58
100
AcDbEntity
  8
0
100
AcDbBlockBegin
  2
Gen1
 70
     0
 10
2.00000000023995
 20
65.00000000018008
 30
0.0
  3
Gen1
  1

  0
INSERT
  5
59
330
58
100
AcDbEntity
  8
0
100
AcDbBlockReference
  2
DS-QTC_1_5-select__3
 10
-11.79342979038169
 20
36.76805079974765
 30
0.0
  0
ENDBLK
  5
5B
330
58
100
AcDbEntity
  8
0
100
AcDbBlockEnd
  0
BLOCK
  5
5D
330
5C
100
AcDbEntity
  8
0
100
AcDbBlockBegin
  2
DS-QTC_1_5-select__4
 70
     0
 10
-52.30013847388102
 20
105.1500004961299
 30
0.0
  3
DS-QTC_1_5-select__4
  1

  0
LINE
  5
117
330
5C
100
AcDbEntity
  8
0
  6
Continuous
 62
     7
100
AcDbLine
 10
-51.30013847388101
 20
143.3000004961217
 30
0.0
 11
-50.300138473881
 21
143.3000004961217
 31
0.0
  0
LINE
  5
118
330
5C
100
AcDbEntity
  8
0
  6
Continuous
 62
     7
100
AcDbLine
 10
-50.300138473881
 20
141.7000004961209
 30
0.0
 11
-51.30013847388101
 21
141.7000004961209
 31
0.0
  0
LINE
  5
119
330
5C
100
AcDbEntity
  8
0
  6
Continuous
 62
     7
100
AcDbLine
 10
-51.30013847388101
 20
140.7000004961209
 30
0.0
 11
-52.300138473881
 21
140.7000004961209
 31
0.0
  0
LINE
  5
11A
330
5C
100
AcDbEntity
  8
0
  6
Continuous
 62
     7
100
AcDbLine
 10
-52.300138473881
 20
140.7000004961209
 30
0.0
 11
-52.300138473881
 21
137.7000004961209
 31
0.0
  0
LINE
  5
11B
330
5C
100
AcDbEntity
  8
0
  6
Continuous
 62
     7
100
AcDbLine
 10
-52.30013847388102
 20
143.3249778231727
 30
0.0
 11
-51.30013847388101
 21
143.3249778231727
 31
0.0
  0
LINE
  5
11C
330
5C
100
AcDbEntity
  8
0
  6
Continuous
 62
     7
100
AcDbLine
 10
-52.300138473881
 20
140.7000004961209
 30
0.0
 11
-52.30013847388102
 21
143.3249778231727
 31
0.0
  0
LINE
  5
11D
330
5C
100
AcDbEntity
  8
0
  6
Continuous
 62
     7
100
AcDbLine
 10
-50.300138473881
 20
105.1500004961299
 30
0.0
 11
-50.300138473881
 21
113.4655449527509
 31
0.0
  0
LINE
  5
11E
330
5C
100
AcDbEntity
  8
0
  6
Continuous
 62
     7
100
AcDbLine
 10
-50.300138473881
 20
105.1500004961299
 30
0.0
 11
-51.300138473881
 21
105.1500004961299
 31
0.0
  0
LINE
  5
11F
330
5C
100
AcDbEntity
  8
0
  6
Continuous
 62
     7
100
AcDbLine
 10
-50.300138473881
 20
131.7000004961251
 30
0.0
 11
-51.300138473881
 21
131.7000004961251
 31
0.0
  0
LINE
  5
120
330
5C
100
AcDbEntity
  8
0
  6
Continuous
 62
     7
100
AcDbLine
 10
-50.300138473881
 20
133.7009554977117
 30
0.0
 11
-51.300138473881
 21
133.7009554977117
 31
0.0
  0
LINE
  5
121
330
5C
100
AcDbEntity
  8
0
  6
Continuous
 62
     7
100
AcDbLine
 10
-50.300138473881
 20
131.7000004961251
 30
0.0
 11
-50.300138473881
 21
133.7009554977117
 31
0.0
  0
LINE
  5
122
330
5C
100
AcDbEntity
  8
0
  6
Continuous
 62
     7
100
AcDbLine
 10
-51.300138473881
 20
119.7000004961222
 30
0.0
 11
-50.300138473881
 21
119.7000004961222
 31
0.0
  0
LINE
  5
123
330
5C
100
AcDbEntity
  8
0
  6
Continuous
 62
     7
100
AcDbLine
 10
-50.300138473881
 20
113.4655449527509
 30
0.0
 11
-51.300138473881
 21
113.465544952751
 31
0.0
  0
LINE
  5
124
330
5C
100
AcDbEntity
  8
0
  6
Continuous
 62
     7
100
AcDbLine
 10
-51.300138473881
 20
113.465544952751
 30
0.0
 11
-51.300138473881
 21
105.1500004961299
 31
0.0
  0
LINE
  5
125
330
5C
100
AcDbEntity
  8
0
  6
Continuous
 62
     7
100
AcDbLine
 10
-51.300138473881
 20
136.7000004961209
 30
0.0
 11
-51.300138473881
 21
133.7009554977117
 31
0.0
  0
LINE
  5
126
330
5C
100
AcDbEntity
  8
0
  6
Continuous
 62
     7
100
AcDbLine
 10
-51.300138473881
 20
133.7009554977117
 30
0.0
 11
-51.300138473881
 21
131.7000004961251
 31
0.0
  0
LINE
  5
127
330
5C
100
AcDbEntity
  8
0
  6
Continuous
 62
     7
100
AcDbLine
 10
-51.300138473881
 20
119.7000004961222
 30
0.0
 11
-51.300138473881
 21
113.465544952751
 31
0.0
  0
LINE
  5
128
330
5C
100
AcDbEntity
  8
0
  6
Continuous
 62
     7
100
AcDbLine
 10
-50.300138473881
 20
133.7009554977117
 30
0.0
 11
-50.300138473881
 21
136.7000004961209
 31
0.0
  0
LINE
  5
129
330
5C
100
AcDbEntity
  8
0
  6
Continuous
 62
     7
100
AcDbLine
 10
-50.300138473881
 20
119.7000004961222
 30
0.0
 11
-50.300138473881
 21
131.7000004961251
 31
0.0
  0
LINE
  5
12A
330
5C
100
AcDbEntity
  8
0
  6
Continuous
 62
     7
100
AcDbLine
 10
-50.300138473881
 20
113.4655449527509
 30
0.0
 11
-50.300138473881
 21
119.7000004961222
 31
0.0
  0
LINE
  5
12B
330
5C
100
AcDbEntity
  8
0
  6
Continuous
 62
     7
100
AcDbLine
 10
-50.300138473881
 20
152.3000004961277
 30
0.0
 11
-50.300138473881
 21
158.5344560395018
 31
0.0
  0
LINE
  5
12C
330
5C
100
AcDbEntity
  8
0
  6
Continuous
 62
     7
100
AcDbLine
 10
-50.300138473881
 20
158.5344560395018
 30
0.0
 11
-50.300138473881
 21
166.8500004961228
 31
0.0
  0
LINE
  5
12D
330
5C
100
AcDbEntity
  8
0
  6
Continuous
 62
     7
100
AcDbLine
 10
-50.300138473881
 20
136.7000004961209
 30
0.0
 11
-50.300138473881
 21
141.7000004961209
 31
0.0
  0
LINE
  5
12E
330
5C
100
AcDbEntity
  8
0
  6
Continuous
 62
     7
100
AcDbLine
 10
-50.300138473881
 20
143.3000004961217
 30
0.0
 11
-50.300138473881
 21
152.3000004961277
 31
0.0
  0
LINE
  5
12F
330
5C
100
AcDbEntity
  8
0
  6
Continuous
 62
     7
100
AcDbLine
 10
-50.300138473881
 20
141.7000004961209
 30
0.0
 11
-50.300138473881
 21
143.3000004961217
 31
0.0
  0
LINE
  5
130
330
5C
100
AcDbEntity
  8
0
  6
Continuous
 62
     7
100
AcDbLine
 10
-52.300138473881
 20
137.7000004961209
 30
0.0
 11
-51.300138473881
 21
137.7000004961209
 31
0.0
  0
LINE
  5
131
330
5C
100
AcDbEntity
  8
0
  6
Continuous
 62
     7
100
AcDbLine
 10
-51.300138473881
 20
137.7000004961209
 30
0.0
 11
-51.300138473881
 21
136.7000004961209
 31
0.0
  0
LINE
  5
132
330
5C
100
AcDbEntity
  8
0
  6
Continuous
 62
     7
100
AcDbLine
 10
-52.30013847388102
 20
135.0750231690691
 30
0.0
 11
-51.300138473881
 21
135.0750231690691
 31
0.0
  0
LINE
  5
133
330
5C
100
AcDbEntity
  8
0
  6
Continuous
 62
     7
100
AcDbLine
 10
-50.300138473881
 20
136.7000004961209
 30
0.0
 11
-51.300138473881
 21
136.7000004961209
 31
0.0
  0
LINE
  5
134
330
5C
100
AcDbEntity
  8
0
  6
Continuous
 62
     7
100
AcDbLine
 10
-52.30013847388102
 20
135.0750231690691
 30
0.0
 11
-52.300138473881
 21
137.7000004961209
 31
0.0
  0
LINE
  5
135
330
5C
100
AcDbEntity
  8
0
  6
Continuous
 62
     7
100
AcDbLine
 10
-50.300138473881
 20
158.5344560395018
 30
0.0
 11
-51.30013847388101
 21
158.5344560395018
 31
0.0
  0
LINE
  5
136
330
5C
100
AcDbEntity
  8
0
  6
Continuous
 62
     7
100
AcDbLine
 10
-50.300138473881
 20
166.8500004961228
 30
0.0
 11
-51.30013847388101
 21
166.8500004961228
 31
0.0
  0
LINE
  5
137
330
5C
100
AcDbEntity
  8
0
  6
Continuous
 62
     7
100
AcDbLine
 10
-51.30013847388101
 20
158.5344560395018
 30
0.0
 11
-51.30013847388101
 21
152.3000004961277
 31
0.0
  0
LINE
  5
138
330
5C
100
AcDbEntity
  8
0
  6
Continuous
 62
     7
100
AcDbLine
 10
-51.30013847388101
 20
143.3000004961217
 30
0.0
 11
-51.30013847388101
 21
152.3000004961277
 31
0.0
  0
LINE
  5
139
330
5C
100
AcDbEntity
  8
0
  6
Continuous
 62
     7
100
AcDbLine
 10
-51.30013847388101
 20
143.3000004961217
 30
0.0
 11
-51.30013847388101
 21
141.7000004961209
 31
0.0
  0
LINE
  5
13A
330
5C
100
AcDbEntity
  8
0
  6
Continuous
 62
     7
100
AcDbLine
 10
-51.30013847388101
 20
166.8500004961228
 30
0.0
 11
-51.30013847388101
 21
158.5344560395018
 31
0.0
  0
LINE
  5
13B
330
5C
100
AcDbEntity
  8
0
  6
Continuous
 62
     7
100
AcDbLine
 10
-51.30013847388101
 20
141.7000004961209
 30
0.0
 11
-51.30013847388101
 21
140.7000004961209
 31
0.0
  0
LINE
  5
13C
330
5C
100
AcDbEntity
  8
0
  6
Continuous
 62
     7
100
AcDbLine
 10
-50.300138473881
 20
152.3000004961277
 30
0.0
 11
-51.30013847388101
 21
152.3000004961277
 31
0.0
  0
LINE
  5
13D
330
5C
100
AcDbEntity
  8
0
  6
Continuous
 62
     7
100
AcDbLine
 10
-51.300138473881
 20
119.7000004961222
 30
0.0
 11
-51.300138473881
 21
131.7000004961251
 31
0.0
  0
LINE
  5
13E
330
5C
100
AcDbEntity
  8
1
  6
DOT_CENTER
 62
     2
100
AcDbLine
 10
-52.30013847388102
 20
139.2000004961209
 30
0.0
 11
-51.300138473881
 21
139.2000004961209
 31
0.0
  0
ENDBLK
  5
5E
330
5C
100
AcDbEntity
  8
0
100
AcDbBlockEnd
  0
BLOCK
  5
61
330
5F
100
AcDbEntity
  8
0
100
AcDbBlockBegin
  2
Left1
 70
     0
 10
-51.300138473696
 20
136.00000000017
 30
0.0
  3
Left1
  1

  0
INSERT
  5
60
330
5F
100
AcDbEntity
  8
0
100
AcDbBlockReference
  2
DS-QTC_1_5-select__4
 10
-52.30013847388102
 20
105.1500004961299
 30
0.0
  0
ENDBLK
  5
62
330
5F
100
AcDbEntity
  8
0
100
AcDbBlockEnd
  0
BLOCK
  5
64
330
63
100
AcDbEntity
  8
0
100
AcDbBlockBegin
  2
DS-QTC_1_5-select__5
 70
     0
 10
-174.999999999625
 20
105.1500004961301
 30
0.0
  3
DS-QTC_1_5-select__5
  1

  0
LINE
  5
13F
330
63
100
AcDbEntity
  8
0
  6
Continuous
 62
     7
100
AcDbLine
 10
-172.999999999625
 20
135.0750231690692
 30
0.0
 11
-174.999999999625
 21
135.0750231690692
 31
0.0
  0
LINE
  5
140
330
63
100
AcDbEntity
  8
0
  6
Continuous
 62
     7
100
AcDbLine
 10
-172.999999999625
 20
143.3249778231729
 30
0.0
 11
-174.999999999625
 21
143.3249778231729
 31
0.0
  0
LINE
  5
141
330
63
100
AcDbEntity
  8
0
  6
Continuous
 62
     7
100
AcDbLine
 10
-173.999999999625
 20
131.7000004961298
 30
0.0
 11
-173.999999999625
 21
133.7000004961264
 31
0.0
  0
LINE
  5
142
330
63
100
AcDbEntity
  8
0
  6
Continuous
 62
     7
100
AcDbLine
 10
-173.999999999625
 20
133.7000004961264
 30
0.0
 11
-173.999999999625
 21
135.0750231690692
 31
0.0
  0
LINE
  5
143
330
63
100
AcDbEntity
  8
0
  6
Continuous
 62
     7
100
AcDbLine
 10
-174.999999999625
 20
143.3249778231729
 30
0.0
 11
-174.999999999625
 21
135.0750231690692
 31
0.0
  0
LINE
  5
144
330
63
100
AcDbEntity
  8
0
  6
Continuous
 62
     7
100
AcDbLine
 10
-174.999999999625
 20
135.0750231690692
 30
0.0
 11
-174.999999999625
 21
133.7000004961264
 31
0.0
  0
LINE
  5
145
330
63
100
AcDbEntity
  8
0
  6
Continuous
 62
     7
100
AcDbLine
 10
-174.999999999625
 20
133.7000004961264
 30
0.0
 11
-174.999999999625
 21
131.7000004961298
 31
0.0
  0
LINE
  5
146
330
63
100
AcDbEntity
  8
0
  6
Continuous
 62
     7
100
AcDbLine
 10
-174.999999999625
 20
133.7000004961264
 30
0.0
 11
-173.999999999625
 21
133.7000004961264
 31
0.0
  0
LINE
  5
147
330
63
100
AcDbEntity
  8
0
  6
Continuous
 62
     7
100
AcDbLine
 10
-174.999999999625
 20
131.7000004961298
 30
0.0
 11
-173.999999999625
 21
131.7000004961298
 31
0.0
  0
LINE
  5
148
330
63
100
AcDbEntity
  8
0
  6
Continuous
 62
     7
100
AcDbLine
 10
-172.999999999625
 20
143.3249778231729
 30
0.0
 11
-172.999999999625
 21
135.0750231690692
 31
0.0
  0
LINE
  5
149
330
63
100
AcDbEntity
  8
0
  6
Continuous
 62
     7
100
AcDbLine
 10
-174.999999999625
 20
119.7000004961306
 30
0.0
 11
-173.999999999625
 21
119.7000004961306
 31
0.0
  0
LINE
  5
14A
330
63
100
AcDbEntity
  8
0
  6
Continuous
 62
     7
100
AcDbLine
 10
-174.999999999625
 20
113.4655449577489
 30
0.0
 11
-173.999999999625
 21
113.4655449577489
 31
0.0
  0
LINE
  5
14B
330
63
100
AcDbEntity
  8
0
  6
Continuous
 62
     7
100
AcDbLine
 10
-174.999999999625
 20
119.7000004961306
 30
0.0
 11
-174.999999999625
 21
113.4655449577489
 31
0.0
  0
LINE
  5
14C
330
63
100
AcDbEntity
  8
0
  6
Continuous
 62
     7
100
AcDbLine
 10
-173.999999999625
 20
105.1500004961301
 30
0.0
 11
-173.999999999625
 21
113.4655449577489
 31
0.0
  0
LINE
  5
14D
330
63
100
AcDbEntity
  8
0
  6
Continuous
 62
     7
100
AcDbLine
 10
-173.999999999625
 20
113.4655449577489
 30
0.0
 11
-173.999999999625
 21
119.7000004961306
 31
0.0
  0
LINE
  5
14E
330
63
100
AcDbEntity
  8
0
  6
Continuous
 62
     7
100
AcDbLine
 10
-173.999999999625
 20
119.7000004961306
 30
0.0
 11
-173.999999999625
 21
131.7000004961298
 31
0.0
  0
LINE
  5
14F
330
63
100
AcDbEntity
  8
0
  6
Continuous
 62
     7
100
AcDbLine
 10
-174.999999999625
 20
105.1500004961301
 30
0.0
 11
-173.999999999625
 21
105.1500004961301
 31
0.0
  0
LINE
  5
150
330
63
100
AcDbEntity
  8
0
  6
Continuous
 62
     7
100
AcDbLine
 10
-174.999999999625
 20
113.4655449577489
 30
0.0
 11
-174.999999999625
 21
105.1500004961301
 31
0.0
  0
LINE
  5
151
330
63
100
AcDbEntity
  8
0
  6
Continuous
 62
     7
100
AcDbLine
 10
-174.999999999625
 20
119.7000004961306
 30
0.0
 11
-174.999999999625
 21
131.7000004961298
 31
0.0
  0
LINE
  5
152
330
63
100
AcDbEntity
  8
0
  6
Continuous
 62
     7
100
AcDbLine
 10
-174.999999999625
 20
158.5344560395004
 30
0.0
 11
-174.999999999625
 21
143.3249778231729
 31
0.0
  0
LINE
  5
153
330
63
100
AcDbEntity
  8
0
  6
Continuous
 62
     7
100
AcDbLine
 10
-173.999999999625
 20
158.5344560395003
 30
0.0
 11
-173.999999999625
 21
166.8500004961229
 31
0.0
  0
LINE
  5
154
330
63
100
AcDbEntity
  8
0
  6
Continuous
 62
     7
100
AcDbLine
 10
-174.999999999625
 20
166.8500004961229
 30
0.0
 11
-174.999999999625
 21
158.5344560395004
 31
0.0
  0
LINE
  5
155
330
63
100
AcDbEntity
  8
0
  6
Continuous
 62
     7
100
AcDbLine
 10
-174.999999999625
 20
158.5344560395004
 30
0.0
 11
-173.999999999625
 21
158.5344560395003
 31
0.0
  0
LINE
  5
156
330
63
100
AcDbEntity
  8
0
  6
Continuous
 62
     7
100
AcDbLine
 10
-174.999999999625
 20
166.8500004961229
 30
0.0
 11
-173.999999999625
 21
166.8500004961229
 31
0.0
  0
LINE
  5
157
330
63
100
AcDbEntity
  8
0
  6
Continuous
 62
     7
100
AcDbLine
 10
-173.999999999625
 20
143.3249778231729
 30
0.0
 11
-173.999999999625
 21
158.5344560395003
 31
0.0
  0
LINE
  5
158
330
63
100
AcDbEntity
  8
1
  6
DOT_CENTER
 62
     2
100
AcDbLine
 10
-172.999999999625
 20
139.2000004961211
 30
0.0
 11
-174.999999999625
 21
139.2000004961211
 31
0.0
  0
ENDBLK
  5
65
330
63
100
AcDbEntity
  8
0
100
AcDbBlockEnd
  0
BLOCK
  5
68
330
66
100
AcDbEntity
  8
0
100
AcDbBlockBegin
  2
Right1
 70
     0
 10
-173.99999999981
 20
136.0000000001701
 30
0.0
  3
Right1
  1

  0
INSERT
  5
67
330
66
100
AcDbEntity
  8
0
100
AcDbBlockReference
  2
DS-QTC_1_5-select__5
 10
-174.999999999625
 20
105.1500004961301
 30
0.0
  0
ENDBLK
  5
69
330
66
100
AcDbEntity
  8
0
100
AcDbBlockEnd
  0
BLOCK
  5
6B
330
6A
100
AcDbEntity
  8
0
100
AcDbBlockBegin
  2
DS-QTC_1_5-select__6
 70
     0
 10
-121.99999977283
 20
61.15000009574263
 30
0.0
  3
DS-QTC_1_5-select__6
  1

  0
LINE
  5
159
330
6A
100
AcDbEntity
  8
0
  6
Continuous
 62
     7
100
AcDbLine
 10
-99.26769775142667
 20
63.15000009574263
 30
0.0
 11
-103.9251154636867
 21
63.15000009574263
 31
0.0
  0
LINE
  5
15A
330
6A
100
AcDbEntity
  8
0
  6
Continuous
 62
     7
100
AcDbLine
 10
-99.26769775142667
 20
63.15000009574263
 30
0.0
 11
-91.3001382263348
 21
63.15000009574264
 31
0.0
  0
LINE
  5
15B
330
6A
100
AcDbEntity
  8
0
  6
Continuous
 62
     7
100
AcDbLine
 10
-91.3001382263348
 20
63.15000009574264
 30
0.0
 11
-91.3001382263348
 21
61.15000009574263
 31
0.0
  0
LINE
  5
15C
330
6A
100
AcDbEntity
  8
0
  6
Continuous
 62
     7
100
AcDbLine
 10
-99.26769775142667
 20
63.15000009574263
 30
0.0
 11
-99.2676977514264
 21
62.15000009574264
 31
0.0
  0
LINE
  5
15D
330
6A
100
AcDbEntity
  8
0
  6
Continuous
 62
     7
100
AcDbLine
 10
-99.19697230980672
 20
61.15000009574263
 30
0.0
 11
-99.19697230980674
 21
62.15000009574264
 31
0.0
  0
LINE
  5
15E
330
6A
100
AcDbEntity
  8
0
  6
Continuous
 62
     7
100
AcDbLine
 10
-91.3001382263348
 20
61.15000009574263
 30
0.0
 11
-99.19697230980672
 21
61.15000009574263
 31
0.0
  0
LINE
  5
15F
330
6A
100
AcDbEntity
  8
0
  6
Continuous
 62
     7
100
AcDbLine
 10
-116.6469723098068
 20
61.15000009574263
 30
0.0
 11
-99.19697230980672
 21
61.15000009574263
 31
0.0
  0
LINE
  5
160
330
6A
100
AcDbEntity
  8
0
  6
Continuous
 62
     7
100
AcDbLine
 10
-99.19697230980674
 20
62.15000009574264
 30
0.0
 11
-103.9251154636867
 21
62.15000009574263
 31
0.0
  0
LINE
  5
161
330
6A
100
AcDbEntity
  8
0
  6
Continuous
 62
     7
100
AcDbLine
 10
-118.875115731587
 20
62.15000009574264
 30
0.0
 11
-121.99999977283
 21
62.15000009574263
 31
0.0
  0
LINE
  5
162
330
6A
100
AcDbEntity
  8
0
  6
Continuous
 62
     7
100
AcDbLine
 10
-103.9251154636867
 20
62.15000009574263
 30
0.0
 11
-116.6469723098068
 21
62.15000009574264
 31
0.0
  0
LINE
  5
163
330
6A
100
AcDbEntity
  8
0
  6
Continuous
 62
     7
100
AcDbLine
 10
-116.6469723098068
 20
62.15000009574264
 30
0.0
 11
-118.875115731587
 21
62.15000009574264
 31
0.0
  0
LINE
  5
164
330
6A
100
AcDbEntity
  8
0
  6
Continuous
 62
     7
100
AcDbLine
 10
-103.9251154636867
 20
62.15000009574263
 30
0.0
 11
-103.9251154636867
 21
63.15000009574263
 31
0.0
  0
LINE
  5
165
330
6A
100
AcDbEntity
  8
0
  6
Continuous
 62
     7
100
AcDbLine
 10
-118.875115731587
 20
61.15000009574263
 30
0.0
 11
-116.6469723098068
 21
61.15000009574263
 31
0.0
  0
LINE
  5
166
330
6A
100
AcDbEntity
  8
0
  6
Continuous
 62
     7
100
AcDbLine
 10
-121.99999977283
 20
61.15000009574263
 30
0.0
 11
-118.875115731587
 21
61.15000009574263
 31
0.0
  0
LINE
  5
167
330
6A
100
AcDbEntity
  8
0
  6
Continuous
 62
     7
100
AcDbLine
 10
-116.6469723098068
 20
61.15000009574263
 30
0.0
 11
-116.6469723098068
 21
62.15000009574264
 31
0.0
  0
LINE
  5
168
330
6A
100
AcDbEntity
  8
0
  6
Continuous
 62
     7
100
AcDbLine
 10
-121.99999977283
 20
61.15000009574263
 30
0.0
 11
-121.99999977283
 21
62.15000009574263
 31
0.0
  0
LINE
  5
169
330
6A
100
AcDbEntity
  8
0
  6
Continuous
 62
     7
100
AcDbLine
 10
-118.875115731587
 20
61.15000009574263
 30
0.0
 11
-118.875115731587
 21
62.15000009574264
 31
0.0
  0
ENDBLK
  5
6C
330
6A
100
AcDbEntity
  8
0
100
AcDbBlockEnd
  0
BLOCK
  5
6F
330
6D
100
AcDbEntity
  8
0
100
AcDbBlockBegin
  2
Top1
 70
     0
 10
-106.6500692365856
 20
62.15000009555763
 30
0.0
  3
Top1
  1

  0
INSERT
  5
6E
330
6D
100
AcDbEntity
  8
0
100
AcDbBlockReference
  2
DS-QTC_1_5-select__6
 10
-121.99999977283
 20
61.15000009574263
 30
0.0
  0
DIMENSION
  5
176
330
6D
100
AcDbEntity
  8
1
100
AcDbDimension
  2
*D19
 10
-131.2887562135763
 20
61.15000009574263
 30
0.0
 11
-134.5387562135763
 21
67.54113990039237
 31
0.0
 70
    32
  1
<>
 71
     5
 42
-1.0
 53
90.0
  3
ME10_DIM_12
100
AcDbAlignedDimension
 13
-99.26769775142667
 23
63.15000009574263
 33
0.0
 14
-99.19697230980672
 24
61.15000009574263
 34
0.0
 50
90.0
100
AcDbRotatedDimension
  0
ENDBLK
  5
70
330
6D
100
AcDbEntity
  8
0
100
AcDbBlockEnd
  0
BLOCK
  5
72
330
71
100
AcDbEntity
  8
0
100
AcDbBlockBegin
  2
_rahmen
 70
     0
 10
67.04620484004828
 20
-3.53029234279876
 30
0.0
  3
_rahmen
  1

  0
LINE
  5
177
330
71
100
AcDbEntity
  8
1
  6
DOT_CENTER
 62
     2
100
AcDbLine
 10
-58.51194480013913
 20
22.59470765720127
 30
0.0
 11
-53.01194480013913
 21
22.59470765720127
 31
0.0
  0
LINE
  5
178
330
71
100
AcDbEntity
  8
1
  6
PHANTOM
 62
     2
100
AcDbLine
 10
-49.76194480013913
 20
25.34470765720127
 30
0.0
 11
-49.76194480013913
 21
19.84470765720127
 31
0.0
  0
LINE
  5
179
330
71
100
AcDbEntity
  8
1
  6
PHANTOM
 62
     2
100
AcDbLine
 10
-47.01194480013913
 20
22.59470765720127
 30
0.0
 11
-52.51194480013913
 21
22.59470765720127
 31
0.0
  0
LINE
  5
17A
330
71
100
AcDbEntity
  8
1
  6
Continuous
 62
     7
100
AcDbLine
 10
1.80140031329827
 20
9.96970765720127
 30
0.0
 11
1.80140031329827
 21
18.46970765720135
 31
0.0
  0
LINE
  5
17B
330
71
100
AcDbEntity
  8
1
  6
Continuous
 62
     6
100
AcDbLine
 10
-26.09859968670182
 20
18.46970765720135
 30
0.0
 11
67.04620484004997
 21
18.46970765720135
 31
0.0
  0
LINE
  5
17C
330
71
100
AcDbEntity
  8
1
  6
Continuous
 62
     7
100
AcDbLine
 10
-62.49859968670174
 20
18.46970765720135
 30
0.0
 11
-62.49859968670174
 21
26.96970765720135
 31
0.0
  0
LINE
  5
17D
330
71
100
AcDbEntity
  8
1
  6
Continuous
 62
     7
100
AcDbLine
 10
-26.09859968670182
 20
18.46970765720135
 30
0.0
 11
-26.09859968670182
 21
26.96970765720135
 31
0.0
  0
LINE
  5
17E
330
71
100
AcDbEntity
  8
1
  6
Continuous
 62
     7
100
AcDbLine
 10
31.62779655837116
 20
26.96970765720135
 30
0.0
 11
31.62779655837116
 21
18.46970765720135
 31
0.0
  0
LINE
  5
17F
330
71
100
AcDbEntity
  8
1
  6
Continuous
 62
     7
100
AcDbLine
 10
58.12779655837076
 20
26.96970765720135
 30
0.0
 11
58.12779655837076
 21
18.46970765720135
 31
0.0
  0
LINE
  5
180
330
71
100
AcDbEntity
  8
1
  6
Continuous
 62
     6
100
AcDbLine
 10
-131.4985996867017
 20
1.46970765720135
 30
0.0
 11
-176.4537951599517
 21
1.46970765720135
 31
0.0
  0
LINE
  5
181
330
71
100
AcDbEntity
  8
1
  6
Continuous
 62
     7
100
AcDbLine
 10
67.04620484004957
 20
9.96970765720135
 30
0.0
 11
-26.09859968670182
 21
9.96970765720135
 31
0.0
  0
LINE
  5
182
102
{ACAD_REACTORS
330
294
330
295
102
}
330
71
100
AcDbEntity
  8
0
  6
Continuous
 62
     2
100
AcDbLine
 10
-48.79117074493433
 20
10.76999677286466
 30
0.0
 11
-48.79117074493433
 21
11.64251377966795
 31
0.0
  0
LINE
  5
183
102
{ACAD_REACTORS
330
294
330
295
102
}
330
71
100
AcDbEntity
  8
0
  6
Continuous
 62
     2
100
AcDbLine
 10
-48.79117074493433
 20
9.81022806538175
 30
0.0
 11
-48.79117074493433
 21
8.93771105857854
 31
0.0
  0
LINE
  5
184
102
{ACAD_REACTORS
330
296
330
297
102
}
330
71
100
AcDbEntity
  8
0
  6
Continuous
 62
     2
100
AcDbLine
 10
-33.45812660864382
 20
11.03175187490515
 30
0.0
 11
-32.35448730907572
 21
11.03175187490515
 31
0.0
  0
LINE
  5
185
102
{ACAD_REACTORS
330
296
330
297
102
}
330
71
100
AcDbEntity
  8
0
  6
Continuous
 62
     2
100
AcDbLine
 10
-32.68846926568241
 20
9.81022806538127
 30
0.0
 11
-32.68846926568241
 21
8.93771105857795
 31
0.0
  0
LINE
  5
186
102
{ACAD_REACTORS
330
2A0
330
2A1
102
}
330
71
100
AcDbEntity
  8
0
  6
Continuous
 62
     2
100
AcDbLine
 10
-34.54922588106234
 20
12.12239813339195
 30
0.0
 11
-33.15127283412204
 21
13.70325712716695
 31
0.0
  0
LINE
  5
187
102
{ACAD_REACTORS
330
2A0
330
2A1
102
}
330
71
100
AcDbEntity
  8
0
  6
Continuous
 62
     2
100
AcDbLine
 10
-34.45380246488952
 20
15.17620765720315
 30
0.0
 11
-33.15127283412204
 21
13.70325712716695
 31
0.0
  0
LINE
  5
188
102
{ACAD_REACTORS
330
2A0
330
2A1
102
}
330
71
100
AcDbEntity
  8
0
  6
Continuous
 62
     2
100
AcDbLine
 10
-31.84874320335564
 20
15.17620765720315
 30
0.0
 11
-30.44601898560842
 21
15.17620765720315
 31
0.0
  0
LINE
  5
189
102
{ACAD_REACTORS
330
2A0
330
2A1
102
}
330
71
100
AcDbEntity
  8
0
  6
Continuous
 62
     2
100
AcDbLine
 10
-33.14650166331413
 20
12.12239813339195
 30
0.0
 11
-32.44991072524843
 21
12.91012991868567
 31
0.0
  0
LINE
  5
18A
102
{ACAD_REACTORS
330
2A0
330
2A1
102
}
330
71
100
AcDbEntity
  8
0
  6
Continuous
 62
     2
100
AcDbLine
 10
-33.14650166331413
 20
12.12239813339195
 30
0.0
 11
-34.54922588106234
 21
12.12239813339195
 31
0.0
  0
LINE
  5
18B
102
{ACAD_REACTORS
330
2A2
330
2A3
102
}
330
71
100
AcDbEntity
  8
0
  6
Continuous
 62
     2
100
AcDbLine
 10
-34.66850515127922
 20
12.12239813339195
 30
0.0
 11
-35.90900956153212
 21
12.12239813339195
 31
0.0
  0
LINE
  5
18C
102
{ACAD_REACTORS
330
2A4
330
2A5
102
}
330
71
100
AcDbEntity
  8
0
  6
Continuous
 62
     2
100
AcDbLine
 10
-36.77698916968723
 20
9.98473146674215
 30
0.0
 11
-37.07715440687733
 21
10.75254643272885
 31
0.0
  0
LINE
  5
18D
102
{ACAD_REACTORS
330
2A4
330
2A5
102
}
330
71
100
AcDbEntity
  8
0
  6
Continuous
 62
     2
100
AcDbLine
 10
-37.37731964406973
 20
9.98473146674215
 30
0.0
 11
-36.77698916968723
 21
9.98473146674215
 31
0.0
  0
LINE
  5
18E
102
{ACAD_REACTORS
330
2A4
330
2A5
102
}
330
71
100
AcDbEntity
  8
0
  6
Continuous
 62
     2
100
AcDbLine
 10
-39.09535965894352
 20
8.76320765721766
 30
0.0
 11
-37.85485524869054
 21
8.76320765721766
 31
0.0
  0
LINE
  5
18F
102
{ACAD_REACTORS
330
2A4
330
2A5
102
}
330
71
100
AcDbEntity
  8
0
  6
Continuous
 62
     2
100
AcDbLine
 10
-37.69740661200422
 20
11.81701718102875
 30
0.0
 11
-36.45690220175152
 21
11.81701718102875
 31
0.0
  0
LINE
  5
190
102
{ACAD_REACTORS
330
2A4
330
2A5
102
}
330
71
100
AcDbEntity
  8
0
  6
Continuous
 62
     2
100
AcDbLine
 10
-36.45690220175152
 20
11.81701718102875
 30
0.0
 11
-35.05894915481122
 21
8.76320765721766
 31
0.0
  0
LINE
  5
191
102
{ACAD_REACTORS
330
2A4
330
2A5
102
}
330
71
100
AcDbEntity
  8
0
  6
Continuous
 62
     2
100
AcDbLine
 10
-36.29945356506514
 20
8.76320765721766
 30
0.0
 11
-36.51093361854092
 21
9.30416820143554
 31
0.0
  0
LINE
  5
192
102
{ACAD_REACTORS
330
2A6
330
2A7
102
}
330
71
100
AcDbEntity
  8
0
  6
Continuous
 62
     2
100
AcDbLine
 10
-40.44177276065113
 20
8.76320765721766
 30
0.0
 11
-39.24898005848462
 21
8.76320765721766
 31
0.0
  0
LINE
  5
193
102
{ACAD_REACTORS
330
2A6
330
2A7
102
}
330
71
100
AcDbEntity
  8
0
  6
Continuous
 62
     2
100
AcDbLine
 10
-40.44177276065113
 20
11.03175187490515
 30
0.0
 11
-40.44177276065113
 21
8.76320765721766
 31
0.0
  0
LINE
  5
194
102
{ACAD_REACTORS
330
2A6
330
2A7
102
}
330
71
100
AcDbEntity
  8
0
  6
Continuous
 62
     2
100
AcDbLine
 10
-41.25287179812574
 20
11.81701718102875
 30
0.0
 11
-41.25287179812574
 21
11.03175187490515
 31
0.0
  0
LINE
  5
195
102
{ACAD_REACTORS
330
2A8
330
2A9
102
}
330
71
100
AcDbEntity
  8
0
  6
Continuous
 62
     2
100
AcDbLine
 10
-39.77365791655313
 20
12.12239813339195
 30
0.0
 11
-38.58086521438662
 21
12.12239813339195
 31
0.0
  0
LINE
  5
196
102
{ACAD_REACTORS
330
2A8
330
2A9
102
}
330
71
100
AcDbEntity
  8
0
  6
Continuous
 62
     2
100
AcDbLine
 10
-37.34036080413262
 20
13.86743214699797
 30
0.0
 11
-38.58086521438662
 21
15.17620765720315
 31
0.0
  0
LINE
  5
197
102
{ACAD_REACTORS
330
2A8
330
2A9
102
}
330
71
100
AcDbEntity
  8
0
  6
Continuous
 62
     2
100
AcDbLine
 10
-36.14756810196602
 20
15.17620765720315
 30
0.0
 11
-37.34036080413262
 21
15.17620765720315
 31
0.0
  0
LINE
  5
198
102
{ACAD_REACTORS
330
2A8
330
2A9
102
}
330
71
100
AcDbEntity
  8
0
  6
Continuous
 62
     2
100
AcDbLine
 10
-36.14756810196602
 20
12.12239813339195
 30
0.0
 11
-36.14756810196602
 21
15.17620765720315
 31
0.0
  0
LINE
  5
199
102
{ACAD_REACTORS
330
2A8
330
2A9
102
}
330
71
100
AcDbEntity
  8
0
  6
Continuous
 62
     2
100
AcDbLine
 10
-37.34036080413262
 20
12.12239813339195
 30
0.0
 11
-36.14756810196602
 21
12.12239813339195
 31
0.0
  0
LINE
  5
19A
102
{ACAD_REACTORS
330
2A8
330
2A9
102
}
330
71
100
AcDbEntity
  8
0
  6
Continuous
 62
     2
100
AcDbLine
 10
-38.58086521438662
 20
13.43117364359665
 30
0.0
 11
-37.34036080413262
 21
12.12239813339195
 31
0.0
  0
LINE
  5
19B
102
{ACAD_REACTORS
330
2AA
330
2AB
102
}
330
71
100
AcDbEntity
  8
0
  6
Continuous
 62
     2
100
AcDbLine
 10
-42.58879962455234
 20
10.50824167082365
 30
0.0
 11
-43.82930403480523
 21
11.81701718102875
 31
0.0
  0
LINE
  5
19C
102
{ACAD_REACTORS
330
2AA
330
2AB
102
}
330
71
100
AcDbEntity
  8
0
  6
Continuous
 62
     2
100
AcDbLine
 10
-42.58879962455234
 20
11.81701718102875
 30
0.0
 11
-42.58879962455234
 21
10.50824167082365
 31
0.0
  0
LINE
  5
19D
102
{ACAD_REACTORS
330
2AA
330
2AB
102
}
330
71
100
AcDbEntity
  8
0
  6
Continuous
 62
     2
100
AcDbLine
 10
-41.39600692238594
 20
11.81701718102875
 30
0.0
 11
-42.58879962455234
 21
11.81701718102875
 31
0.0
  0
LINE
  5
19E
102
{ACAD_REACTORS
330
2AA
330
2AB
102
}
330
71
100
AcDbEntity
  8
0
  6
Continuous
 62
     2
100
AcDbLine
 10
-41.39600692238594
 20
8.76320765721766
 30
0.0
 11
-41.39600692238594
 21
11.81701718102875
 31
0.0
  0
LINE
  5
19F
102
{ACAD_REACTORS
330
2AA
330
2AB
102
}
330
71
100
AcDbEntity
  8
0
  6
Continuous
 62
     2
100
AcDbLine
 10
-43.82930403480523
 20
10.07198316742225
 30
0.0
 11
-42.58879962455234
 21
8.76320765721766
 31
0.0
  0
LINE
  5
1A0
102
{ACAD_REACTORS
330
2AA
330
2AB
102
}
330
71
100
AcDbEntity
  8
0
  6
Continuous
 62
     2
100
AcDbLine
 10
-43.82930403480523
 20
8.76320765721766
 30
0.0
 11
-43.82930403480523
 21
10.07198316742225
 31
0.0
  0
LINE
  5
1A1
102
{ACAD_REACTORS
330
29A
330
29B
102
}
330
71
100
AcDbEntity
  8
0
  6
Continuous
 62
     2
100
AcDbLine
 10
-41.34814428341372
 20
14.47819405176017
 30
0.0
 11
-40.01221645698604
 21
14.47819405176017
 31
0.0
  0
LINE
  5
1A2
102
{ACAD_REACTORS
330
29A
330
29B
102
}
330
71
100
AcDbEntity
  8
0
  6
Continuous
 62
     2
100
AcDbLine
 10
-41.34814428341372
 20
12.82041173883445
 30
0.0
 11
-41.34814428341372
 21
13.30029609257616
 31
0.0
  0
LINE
  5
1A3
102
{ACAD_REACTORS
330
29A
330
29B
102
}
330
71
100
AcDbEntity
  8
0
  6
Continuous
 62
     2
100
AcDbLine
 10
-40.01221645698604
 20
12.82041173883445
 30
0.0
 11
-41.34814428341372
 21
12.82041173883445
 31
0.0
  0
LINE
  5
1A4
102
{ACAD_REACTORS
330
29A
330
29B
102
}
330
71
100
AcDbEntity
  8
0
  6
Continuous
 62
     2
100
AcDbLine
 10
-40.01221645698604
 20
12.12239813339195
 30
0.0
 11
-40.01221645698604
 21
12.82041173883445
 31
0.0
  0
LINE
  5
1A5
102
{ACAD_REACTORS
330
29A
330
29B
102
}
330
71
100
AcDbEntity
  8
0
  6
Continuous
 62
     2
100
AcDbLine
 10
-43.16253618076703
 20
12.12239813339195
 30
0.0
 11
-40.01221645698604
 21
12.12239813339195
 31
0.0
  0
LINE
  5
1A6
102
{ACAD_REACTORS
330
29A
330
29B
102
}
330
71
100
AcDbEntity
  8
0
  6
Continuous
 62
     2
100
AcDbLine
 10
-43.16253618076703
 20
15.17620765720315
 30
0.0
 11
-40.01221645698604
 21
15.17620765720315
 31
0.0
  0
LINE
  5
1A7
102
{ACAD_REACTORS
330
29A
330
29B
102
}
330
71
100
AcDbEntity
  8
0
  6
Continuous
 62
     2
100
AcDbLine
 10
-40.01221645698604
 20
14.47819405176017
 30
0.0
 11
-40.01221645698604
 21
15.17620765720315
 31
0.0
  0
LINE
  5
1A8
102
{ACAD_REACTORS
330
2AC
330
2AD
102
}
330
71
100
AcDbEntity
  8
0
  6
Continuous
 62
     2
100
AcDbLine
 10
-46.02389167590704
 20
14.10737432386856
 30
0.0
 11
-46.02389167590704
 21
15.17620765720315
 31
0.0
  0
LINE
  5
1A9
102
{ACAD_REACTORS
330
2AC
330
2AD
102
}
330
71
100
AcDbEntity
  8
0
  6
Continuous
 62
     2
100
AcDbLine
 10
-46.02389167590704
 20
15.17620765720315
 30
0.0
 11
-44.83109897374064
 21
15.17620765720315
 31
0.0
  0
LINE
  5
1AA
102
{ACAD_REACTORS
330
2AC
330
2AD
102
}
330
71
100
AcDbEntity
  8
0
  6
Continuous
 62
     2
100
AcDbLine
 10
-46.02389167590704
 20
13.25667024223577
 30
0.0
 11
-47.07354925381452
 21
13.25667024223577
 31
0.0
  0
LINE
  5
1AB
102
{ACAD_REACTORS
330
2AC
330
2AD
102
}
330
71
100
AcDbEntity
  8
0
  6
Continuous
 62
     2
100
AcDbLine
 10
-47.07354925381452
 20
13.25667024223577
 30
0.0
 11
-47.07354925381452
 21
12.12239813339195
 31
0.0
  0
LINE
  5
1AC
102
{ACAD_REACTORS
330
2AC
330
2AD
102
}
330
71
100
AcDbEntity
  8
0
  6
Continuous
 62
     2
100
AcDbLine
 10
-48.26634195598112
 20
15.17620765720315
 30
0.0
 11
-48.26634195598112
 21
12.12239813339195
 31
0.0
  0
LINE
  5
1AD
102
{ACAD_REACTORS
330
29E
330
29F
102
}
330
71
100
AcDbEntity
  8
0
  6
Continuous
 62
     2
100
AcDbLine
 10
-50.22252198753472
 20
13.80737416242084
 30
0.0
 11
-50.22252198753472
 21
14.51310181176305
 31
0.0
  0
LINE
  5
1AE
102
{ACAD_REACTORS
330
29E
330
29F
102
}
330
71
100
AcDbEntity
  8
0
  6
Continuous
 62
     2
100
AcDbLine
 10
-51.46302639778884
 20
12.12239813339195
 30
0.0
 11
-50.22252198753472
 21
12.12239813339195
 31
0.0
  0
LINE
  5
1AF
102
{ACAD_REACTORS
330
29E
330
29F
102
}
330
71
100
AcDbEntity
  8
0
  6
Continuous
 62
     2
100
AcDbLine
 10
-50.22252198753472
 20
12.12239813339195
 30
0.0
 11
-50.22252198753472
 21
13.06547637453576
 31
0.0
  0
LINE
  5
1B0
102
{ACAD_REACTORS
330
298
330
299
102
}
330
71
100
AcDbEntity
  8
0
  6
Continuous
 62
     2
100
AcDbLine
 10
-55.76797224700022
 20
9.47576321277455
 30
0.0
 11
-57.24380550800984
 21
9.47576321277455
 31
0.0
  0
LINE
  5
1B1
102
{ACAD_REACTORS
330
298
330
299
102
}
330
71
100
AcDbEntity
  8
0
  6
Continuous
 62
     2
100
AcDbLine
 10
-58.26194480013913
 20
14.75196304180116
 30
0.0
 11
-58.26194480013913
 21
9.18745227260095
 31
0.0
  0
LINE
  5
1B2
102
{ACAD_REACTORS
330
298
330
299
102
}
330
71
100
AcDbEntity
  8
0
  6
Continuous
 62
     2
100
AcDbLine
 10
-57.83770018475633
 20
15.17620765718496
 30
0.0
 11
-52.36438809403953
 21
15.17620765718496
 31
0.0
  0
LINE
  5
1B3
102
{ACAD_REACTORS
330
298
330
299
102
}
330
71
100
AcDbEntity
  8
0
  6
Continuous
 62
     2
100
AcDbLine
 10
-51.94014347865564
 20
14.75196304180116
 30
0.0
 11
-51.94014347865564
 21
9.18745227260095
 31
0.0
  0
LINE
  5
1B4
102
{ACAD_REACTORS
330
298
330
299
102
}
330
71
100
AcDbEntity
  8
0
  6
Continuous
 62
     2
100
AcDbLine
 10
-52.36438809403953
 20
8.76320765721766
 30
0.0
 11
-57.83770018475633
 21
8.76320765721766
 31
0.0
  0
LINE
  5
1B5
102
{ACAD_REACTORS
330
298
330
299
102
}
330
71
100
AcDbEntity
  8
0
  6
Continuous
 62
     2
100
AcDbLine
 10
-55.45225532392362
 20
9.79148013585126
 30
0.0
 11
-55.45225532392362
 21
11.32225106738287
 31
0.0
  0
LINE
  5
1B6
102
{ACAD_REACTORS
330
298
330
299
102
}
330
71
100
AcDbEntity
  8
0
  6
Continuous
 62
     2
100
AcDbLine
 10
-55.45225532392362
 20
13.54391055950785
 30
0.0
 11
-55.45225532392362
 21
14.14793517856836
 31
0.0
  0
LINE
  5
1B7
102
{ACAD_REACTORS
330
298
330
299
102
}
330
71
100
AcDbEntity
  8
0
  6
Continuous
 62
     2
100
AcDbLine
 10
-57.24380550800984
 20
14.46365210164456
 30
0.0
 11
-55.76797224700022
 21
14.46365210164456
 31
0.0
  0
LINE
  5
1B8
102
{ACAD_REACTORS
330
298
330
299
102
}
330
71
100
AcDbEntity
  8
0
  6
Continuous
 62
     2
100
AcDbLine
 10
-57.55952243108553
 20
14.14793517856836
 30
0.0
 11
-57.55952243108553
 21
9.79148013585126
 31
0.0
  0
LINE
  5
1B9
102
{ACAD_REACTORS
330
29E
330
29F
102
}
330
71
100
AcDbEntity
  8
0
  6
Continuous
 62
     2
100
AcDbLine
 10
-50.22252198753472
 20
13.06547637453576
 30
0.0
 11
-49.46375439975444
 21
13.06547637453576
 31
0.0
  0
LINE
  5
1BA
102
{ACAD_REACTORS
330
29E
330
29F
102
}
330
71
100
AcDbEntity
  8
0
  6
Continuous
 62
     2
100
AcDbLine
 10
-51.46302639778884
 20
15.17620765720315
 30
0.0
 11
-49.46375439975444
 21
15.17620765720315
 31
0.0
  0
LINE
  5
1BB
102
{ACAD_REACTORS
330
29E
330
29F
102
}
330
71
100
AcDbEntity
  8
0
  6
Continuous
 62
     2
100
AcDbLine
 10
-51.46302639778884
 20
15.17620765720315
 30
0.0
 11
-51.46302639778884
 21
12.12239813339195
 31
0.0
  0
LINE
  5
1BC
102
{ACAD_REACTORS
330
29E
330
29F
102
}
330
71
100
AcDbEntity
  8
0
  6
Continuous
 62
     2
100
AcDbLine
 10
-50.22252198753472
 20
13.80737416242084
 30
0.0
 11
-49.90522692599282
 21
13.80737416242084
 31
0.0
  0
LINE
  5
1BD
102
{ACAD_REACTORS
330
29E
330
29F
102
}
330
71
100
AcDbEntity
  8
0
  6
Continuous
 62
     2
100
AcDbLine
 10
-50.22252198753472
 20
14.51310181176305
 30
0.0
 11
-49.90522692599282
 21
14.51310181176305
 31
0.0
  0
LINE
  5
1BE
102
{ACAD_REACTORS
330
2AC
330
2AD
102
}
330
71
100
AcDbEntity
  8
0
  6
Continuous
 62
     2
100
AcDbLine
 10
-47.07354925381452
 20
14.10737432386856
 30
0.0
 11
-46.02389167590704
 21
14.10737432386856
 31
0.0
  0
LINE
  5
1BF
102
{ACAD_REACTORS
330
2AC
330
2AD
102
}
330
71
100
AcDbEntity
  8
0
  6
Continuous
 62
     2
100
AcDbLine
 10
-47.07354925381452
 20
15.17620765720315
 30
0.0
 11
-47.07354925381452
 21
14.10737432386856
 31
0.0
  0
LINE
  5
1C0
102
{ACAD_REACTORS
330
2AC
330
2AD
102
}
330
71
100
AcDbEntity
  8
0
  6
Continuous
 62
     2
100
AcDbLine
 10
-48.26634195598112
 20
15.17620765720315
 30
0.0
 11
-47.07354925381452
 21
15.17620765720315
 31
0.0
  0
LINE
  5
1C1
102
{ACAD_REACTORS
330
2AC
330
2AD
102
}
330
71
100
AcDbEntity
  8
0
  6
Continuous
 62
     2
100
AcDbLine
 10
-47.07354925381452
 20
12.12239813339195
 30
0.0
 11
-48.26634195598112
 21
12.12239813339195
 31
0.0
  0
LINE
  5
1C2
102
{ACAD_REACTORS
330
2AC
330
2AD
102
}
330
71
100
AcDbEntity
  8
0
  6
Continuous
 62
     2
100
AcDbLine
 10
-46.02389167590704
 20
12.12239813339195
 30
0.0
 11
-46.02389167590704
 21
13.25667024223577
 31
0.0
  0
LINE
  5
1C3
102
{ACAD_REACTORS
330
2AC
330
2AD
102
}
330
71
100
AcDbEntity
  8
0
  6
Continuous
 62
     2
100
AcDbLine
 10
-44.83109897374064
 20
12.12239813339195
 30
0.0
 11
-46.02389167590704
 21
12.12239813339195
 31
0.0
  0
LINE
  5
1C4
102
{ACAD_REACTORS
330
2AC
330
2AD
102
}
330
71
100
AcDbEntity
  8
0
  6
Continuous
 62
     2
100
AcDbLine
 10
-44.83109897374064
 20
15.17620765720315
 30
0.0
 11
-44.83109897374064
 21
12.12239813339195
 31
0.0
  0
LINE
  5
1C5
102
{ACAD_REACTORS
330
29A
330
29B
102
}
330
71
100
AcDbEntity
  8
0
  6
Continuous
 62
     2
100
AcDbLine
 10
-41.34814428341372
 20
13.30029609257616
 30
0.0
 11
-40.01221645698604
 21
13.30029609257616
 31
0.0
  0
LINE
  5
1C6
102
{ACAD_REACTORS
330
29A
330
29B
102
}
330
71
100
AcDbEntity
  8
0
  6
Continuous
 62
     2
100
AcDbLine
 10
-40.01221645698604
 20
13.30029609257616
 30
0.0
 11
-40.01221645698604
 21
13.99830969801846
 31
0.0
  0
LINE
  5
1C7
102
{ACAD_REACTORS
330
29A
330
29B
102
}
330
71
100
AcDbEntity
  8
0
  6
Continuous
 62
     2
100
AcDbLine
 10
-40.01221645698604
 20
13.99830969801846
 30
0.0
 11
-41.34814428341372
 21
13.99830969801846
 31
0.0
  0
LINE
  5
1C8
102
{ACAD_REACTORS
330
29A
330
29B
102
}
330
71
100
AcDbEntity
  8
0
  6
Continuous
 62
     2
100
AcDbLine
 10
-41.34814428341372
 20
13.99830969801846
 30
0.0
 11
-41.34814428341372
 21
14.47819405176017
 31
0.0
  0
LINE
  5
1C9
102
{ACAD_REACTORS
330
2AA
330
2AB
102
}
330
71
100
AcDbEntity
  8
0
  6
Continuous
 62
     2
100
AcDbLine
 10
-45.02209673697283
 20
8.76320765721766
 30
0.0
 11
-43.82930403480523
 21
8.76320765721766
 31
0.0
  0
LINE
  5
1CA
102
{ACAD_REACTORS
330
2AA
330
2AB
102
}
330
71
100
AcDbEntity
  8
0
  6
Continuous
 62
     2
100
AcDbLine
 10
-42.58879962455234
 20
8.76320765721766
 30
0.0
 11
-41.39600692238594
 21
8.76320765721766
 31
0.0
  0
LINE
  5
1CB
102
{ACAD_REACTORS
330
2AA
330
2AB
102
}
330
71
100
AcDbEntity
  8
0
  6
Continuous
 62
     2
100
AcDbLine
 10
-43.82930403480523
 20
11.81701718102875
 30
0.0
 11
-45.02209673697283
 21
11.81701718102875
 31
0.0
  0
LINE
  5
1CC
102
{ACAD_REACTORS
330
2AA
330
2AB
102
}
330
71
100
AcDbEntity
  8
0
  6
Continuous
 62
     2
100
AcDbLine
 10
-45.02209673697283
 20
11.81701718102875
 30
0.0
 11
-45.02209673697283
 21
8.76320765721766
 31
0.0
  0
LINE
  5
1CD
102
{ACAD_REACTORS
330
2A8
330
2A9
102
}
330
71
100
AcDbEntity
  8
0
  6
Continuous
 62
     2
100
AcDbLine
 10
-37.34036080413262
 20
15.17620765720315
 30
0.0
 11
-37.34036080413262
 21
13.86743214699797
 31
0.0
  0
LINE
  5
1CE
102
{ACAD_REACTORS
330
2A8
330
2A9
102
}
330
71
100
AcDbEntity
  8
0
  6
Continuous
 62
     2
100
AcDbLine
 10
-38.58086521438662
 20
15.17620765720315
 30
0.0
 11
-39.77365791655313
 21
15.17620765720315
 31
0.0
  0
LINE
  5
1CF
102
{ACAD_REACTORS
330
2A8
330
2A9
102
}
330
71
100
AcDbEntity
  8
0
  6
Continuous
 62
     2
100
AcDbLine
 10
-39.77365791655313
 20
15.17620765720315
 30
0.0
 11
-39.77365791655313
 21
12.12239813339195
 31
0.0
  0
LINE
  5
1D0
102
{ACAD_REACTORS
330
2A8
330
2A9
102
}
330
71
100
AcDbEntity
  8
0
  6
Continuous
 62
     2
100
AcDbLine
 10
-38.58086521438662
 20
12.12239813339195
 30
0.0
 11
-38.58086521438662
 21
13.43117364359665
 31
0.0
  0
LINE
  5
1D1
102
{ACAD_REACTORS
330
2A6
330
2A7
102
}
330
71
100
AcDbEntity
  8
0
  6
Continuous
 62
     2
100
AcDbLine
 10
-39.24898005848462
 20
8.76320765721766
 30
0.0
 11
-39.24898005848462
 21
11.03175187490515
 31
0.0
  0
LINE
  5
1D2
102
{ACAD_REACTORS
330
2A6
330
2A7
102
}
330
71
100
AcDbEntity
  8
0
  6
Continuous
 62
     2
100
AcDbLine
 10
-39.24898005848462
 20
11.03175187490515
 30
0.0
 11
-38.43788102101212
 21
11.03175187490515
 31
0.0
  0
LINE
  5
1D3
102
{ACAD_REACTORS
330
2A6
330
2A7
102
}
330
71
100
AcDbEntity
  8
0
  6
Continuous
 62
     2
100
AcDbLine
 10
-38.43788102101212
 20
11.03175187490515
 30
0.0
 11
-38.43788102101212
 21
11.81701718102875
 31
0.0
  0
LINE
  5
1D4
102
{ACAD_REACTORS
330
2A6
330
2A7
102
}
330
71
100
AcDbEntity
  8
0
  6
Continuous
 62
     2
100
AcDbLine
 10
-38.43788102101212
 20
11.81701718102875
 30
0.0
 11
-41.25287179812574
 21
11.81701718102875
 31
0.0
  0
LINE
  5
1D5
102
{ACAD_REACTORS
330
2A6
330
2A7
102
}
330
71
100
AcDbEntity
  8
0
  6
Continuous
 62
     2
100
AcDbLine
 10
-41.25287179812574
 20
11.03175187490515
 30
0.0
 11
-40.44177276065113
 21
11.03175187490515
 31
0.0
  0
LINE
  5
1D6
102
{ACAD_REACTORS
330
2A4
330
2A5
102
}
330
71
100
AcDbEntity
  8
0
  6
Continuous
 62
     2
100
AcDbLine
 10
-37.64337519521473
 20
9.30416820143554
 30
0.0
 11
-36.51093361854092
 21
9.30416820143554
 31
0.0
  0
LINE
  5
1D7
102
{ACAD_REACTORS
330
2A4
330
2A5
102
}
330
71
100
AcDbEntity
  8
0
  6
Continuous
 62
     2
100
AcDbLine
 10
-35.05894915481122
 20
8.76320765721766
 30
0.0
 11
-36.29945356506514
 21
8.76320765721766
 31
0.0
  0
LINE
  5
1D8
102
{ACAD_REACTORS
330
2A4
330
2A5
102
}
330
71
100
AcDbEntity
  8
0
  6
Continuous
 62
     2
100
AcDbLine
 10
-37.69740661200422
 20
11.81701718102875
 30
0.0
 11
-39.09535965894352
 21
8.76320765721766
 31
0.0
  0
LINE
  5
1D9
102
{ACAD_REACTORS
330
2A4
330
2A5
102
}
330
71
100
AcDbEntity
  8
0
  6
Continuous
 62
     2
100
AcDbLine
 10
-37.85485524869054
 20
8.76320765721766
 30
0.0
 11
-37.64337519521473
 21
9.30416820143554
 31
0.0
  0
LINE
  5
1DA
102
{ACAD_REACTORS
330
2A4
330
2A5
102
}
330
71
100
AcDbEntity
  8
0
  6
Continuous
 62
     2
100
AcDbLine
 10
-37.37731964406973
 20
9.98473146674215
 30
0.0
 11
-37.07715440687733
 21
10.75254643272885
 31
0.0
  0
LINE
  5
1DB
102
{ACAD_REACTORS
330
2A2
330
2A3
102
}
330
71
100
AcDbEntity
  8
0
  6
Continuous
 62
     2
100
AcDbLine
 10
-35.90900956153212
 20
12.12239813339195
 30
0.0
 11
-35.90900956153212
 21
15.17620765720315
 31
0.0
  0
LINE
  5
1DC
102
{ACAD_REACTORS
330
2A2
330
2A3
102
}
330
71
100
AcDbEntity
  8
0
  6
Continuous
 62
     2
100
AcDbLine
 10
-34.66850515127922
 20
15.17620765720315
 30
0.0
 11
-34.66850515127922
 21
12.12239813339195
 31
0.0
  0
LINE
  5
1DD
102
{ACAD_REACTORS
330
2A2
330
2A3
102
}
330
71
100
AcDbEntity
  8
0
  6
Continuous
 62
     2
100
AcDbLine
 10
-35.90900956153212
 20
15.17620765720315
 30
0.0
 11
-34.66850515127922
 21
15.17620765720315
 31
0.0
  0
LINE
  5
1DE
102
{ACAD_REACTORS
330
2A0
330
2A1
102
}
330
71
100
AcDbEntity
  8
0
  6
Continuous
 62
     2
100
AcDbLine
 10
-32.44991072524843
 20
12.91012991868567
 30
0.0
 11
-31.75331978718293
 21
12.12239813339195
 31
0.0
  0
LINE
  5
1DF
102
{ACAD_REACTORS
330
2A0
330
2A1
102
}
330
71
100
AcDbEntity
  8
0
  6
Continuous
 62
     2
100
AcDbLine
 10
-31.75331978718293
 20
12.12239813339195
 30
0.0
 11
-30.35059556943463
 21
12.12239813339195
 31
0.0
  0
LINE
  5
1E0
102
{ACAD_REACTORS
330
2A0
330
2A1
102
}
330
71
100
AcDbEntity
  8
0
  6
Continuous
 62
     2
100
AcDbLine
 10
-31.74854861637493
 20
13.70325712716695
 30
0.0
 11
-30.35059556943463
 21
12.12239813339195
 31
0.0
  0
LINE
  5
1E1
102
{ACAD_REACTORS
330
2A0
330
2A1
102
}
330
71
100
AcDbEntity
  8
0
  6
Continuous
 62
     2
100
AcDbLine
 10
-31.74854861637493
 20
13.70325712716695
 30
0.0
 11
-30.44601898560842
 21
15.17620765720315
 31
0.0
  0
LINE
  5
1E2
102
{ACAD_REACTORS
330
2A0
330
2A1
102
}
330
71
100
AcDbEntity
  8
0
  6
Continuous
 62
     2
100
AcDbLine
 10
-32.44991072524843
 20
14.49638433564766
 30
0.0
 11
-31.84874320335564
 21
15.17620765720315
 31
0.0
  0
LINE
  5
1E3
102
{ACAD_REACTORS
330
2A0
330
2A1
102
}
330
71
100
AcDbEntity
  8
0
  6
Continuous
 62
     2
100
AcDbLine
 10
-33.05107824714023
 20
15.17620765720315
 30
0.0
 11
-32.44991072524843
 21
14.49638433564766
 31
0.0
  0
LINE
  5
1E4
102
{ACAD_REACTORS
330
2A0
330
2A1
102
}
330
71
100
AcDbEntity
  8
0
  6
Continuous
 62
     2
100
AcDbLine
 10
-33.05107824714023
 20
15.17620765720315
 30
0.0
 11
-34.45380246488952
 21
15.17620765720315
 31
0.0
  0
LINE
  5
1E5
102
{ACAD_REACTORS
330
296
330
297
102
}
330
71
100
AcDbEntity
  8
0
  6
Continuous
 62
     2
100
AcDbLine
 10
-32.35448730907572
 20
8.76320765721766
 30
0.0
 11
-31.16169460690801
 21
8.76320765721766
 31
0.0
  0
LINE
  5
1E6
102
{ACAD_REACTORS
330
296
330
297
102
}
330
71
100
AcDbEntity
  8
0
  6
Continuous
 62
     2
100
AcDbLine
 10
-31.16169460690801
 20
8.76320765721766
 30
0.0
 11
-31.16169460690801
 21
11.03175187490515
 31
0.0
  0
LINE
  5
1E7
102
{ACAD_REACTORS
330
296
330
297
102
}
330
71
100
AcDbEntity
  8
0
  6
Continuous
 62
     2
100
AcDbLine
 10
-31.16169460690801
 20
11.03175187490515
 30
0.0
 11
-30.35059556943463
 21
11.03175187490515
 31
0.0
  0
LINE
  5
1E8
102
{ACAD_REACTORS
330
296
330
297
102
}
330
71
100
AcDbEntity
  8
0
  6
Continuous
 62
     2
100
AcDbLine
 10
-30.35059556943463
 20
11.03175187490515
 30
0.0
 11
-30.35059556943463
 21
11.81701718102875
 31
0.0
  0
LINE
  5
1E9
102
{ACAD_REACTORS
330
296
330
297
102
}
330
71
100
AcDbEntity
  8
0
  6
Continuous
 62
     2
100
AcDbLine
 10
-33.73554108806331
 20
11.81701718102826
 30
0.0
 11
-30.35059556943463
 21
11.81701718102875
 31
0.0
  0
LINE
  5
1EA
102
{ACAD_REACTORS
330
296
330
297
102
}
330
71
100
AcDbEntity
  8
0
  6
Continuous
 62
     2
100
AcDbLine
 10
-32.35448730907572
 20
11.03175187490515
 30
0.0
 11
-32.35448730907572
 21
8.76320765721766
 31
0.0
  0
LINE
  5
1EB
102
{ACAD_REACTORS
330
298
330
299
102
}
330
71
100
AcDbEntity
  8
0
  6
Continuous
 62
     2
100
AcDbLine
 10
-54.98397374455493
 20
10.74208780678217
 30
0.0
 11
-54.98397374455493
 21
11.32393921347725
 31
0.0
  0
LINE
  5
1EC
102
{ACAD_REACTORS
330
298
330
299
102
}
330
71
100
AcDbEntity
  8
0
  6
Continuous
 62
     2
100
AcDbLine
 10
-54.98397374455493
 20
13.54222241341347
 30
0.0
 11
-54.98397374455493
 21
14.14775770192026
 31
0.0
  0
LINE
  5
1ED
330
71
100
AcDbEntity
  8
1
  6
Continuous
 62
     6
100
AcDbLine
 10
-76.45379515995171
 20
1.46970765720135
 30
0.0
 11
-62.49859968670174
 21
1.46970765720124
 31
0.0
  0
LINE
  5
1EE
330
71
100
AcDbEntity
  8
1
  6
Continuous
 62
     6
100
AcDbLine
 10
-126.4537951599519
 20
1.46970765720135
 30
0.0
 11
-131.4985996867017
 21
1.46970765720135
 31
0.0
  0
LINE
  5
1EF
330
71
100
AcDbEntity
  8
1
  6
Continuous
 62
     6
100
AcDbLine
 10
23.54620484004826
 20
1.46970765720135
 30
0.0
 11
67.04620484004828
 21
1.46970765720135
 31
0.0
  0
LINE
  5
1F0
330
71
100
AcDbEntity
  8
1
  6
Continuous
 62
     6
100
AcDbLine
 10
-26.45379515995174
 20
1.46970765720135
 30
0.0
 11
-44.29859968670172
 21
1.46970765720135
 31
0.0
  0
LINE
  5
1F1
330
71
100
AcDbEntity
  8
1
  6
Continuous
 62
     2
100
AcDbLine
 10
67.04620484004828
 20
1.46970765720135
 30
0.0
 11
72.04620484004727
 21
1.46970765720135
 31
0.0
  0
LINE
  5
1F2
330
71
100
AcDbEntity
  8
1
  6
Continuous
 62
     2
100
AcDbLine
 10
67.04620484004828
 20
1.46970765720135
 30
0.0
 11
67.04620484004828
 21
-3.53029234279876
 31
0.0
  0
LINE
  5
1F3
330
71
100
AcDbEntity
  8
1
  6
Continuous
 62
     6
100
AcDbLine
 10
-62.49859968670174
 20
18.46970765720135
 30
0.0
 11
-26.09859968670182
 21
18.46970765720135
 31
0.0
  0
LINE
  5
1F4
330
71
100
AcDbEntity
  8
1
  6
Continuous
 62
     2
100
AcDbLine
 10
72.04620484004727
 20
-3.53029234279876
 30
0.0
 11
72.04620484004727
 21
1.46970765720135
 31
0.0
  0
LINE
  5
1F5
330
71
100
AcDbEntity
  8
1
  6
Continuous
 62
     2
100
AcDbLine
 10
72.04620484004727
 20
-3.53029234279876
 30
0.0
 11
67.04620484004828
 21
-3.53029234279876
 31
0.0
  0
LINE
  5
1F6
330
71
100
AcDbEntity
  8
1
  6
Continuous
 62
     2
100
AcDbLine
 10
67.04620484004828
 20
-3.53029234279876
 30
0.0
 11
23.54620484004826
 21
-3.53029234279876
 31
0.0
  0
LINE
  5
1F7
330
71
100
AcDbEntity
  8
1
  6
Continuous
 62
     6
100
AcDbLine
 10
67.04620484004997
 20
18.46970765720135
 30
0.0
 11
67.04620484004917
 21
51.46970765720147
 31
0.0
  0
LINE
  5
1F8
330
71
100
AcDbEntity
  8
1
  6
Continuous
 62
     2
100
AcDbLine
 10
72.04620484004727
 20
206.4697076572014
 30
0.0
 11
-76.45379515995171
 21
206.4697076572014
 31
0.0
  0
LINE
  5
1F9
330
71
100
AcDbEntity
  8
1
  6
Continuous
 62
     6
100
AcDbLine
 10
67.04620484004727
 20
186.4697076572014
 30
0.0
 11
-219.9537951599508
 21
186.4697076572014
 31
0.0
  0
LINE
  5
1FA
330
71
100
AcDbEntity
  8
1
  6
Continuous
 62
     2
100
AcDbLine
 10
67.04620484004917
 20
51.46970765720147
 30
0.0
 11
72.04620484004727
 21
51.46970765720147
 31
0.0
  0
LINE
  5
1FB
330
71
100
AcDbEntity
  8
1
  6
Continuous
 62
     6
100
AcDbLine
 10
67.04620484004917
 20
51.46970765720147
 30
0.0
 11
67.04620484004867
 21
101.4697076572013
 31
0.0
  0
LINE
  5
1FC
330
71
100
AcDbEntity
  8
1
  6
Continuous
 62
     2
100
AcDbLine
 10
72.04620484004727
 20
51.46970765720147
 30
0.0
 11
72.04620484004727
 21
101.4697076572013
 31
0.0
  0
LINE
  5
1FD
330
71
100
AcDbEntity
  8
1
  6
Continuous
 62
     2
100
AcDbLine
 10
67.04620484004867
 20
101.4697076572013
 30
0.0
 11
72.04620484004727
 21
101.4697076572013
 31
0.0
  0
LINE
  5
1FE
330
71
100
AcDbEntity
  8
1
  6
Continuous
 62
     6
100
AcDbLine
 10
67.04620484004867
 20
101.4697076572013
 30
0.0
 11
67.04620484004747
 21
151.4697076572014
 31
0.0
  0
LINE
  5
1FF
330
71
100
AcDbEntity
  8
1
  6
Continuous
 62
     2
100
AcDbLine
 10
72.04620484004727
 20
101.4697076572013
 30
0.0
 11
72.04620484004727
 21
151.4697076572014
 31
0.0
  0
LINE
  5
200
330
71
100
AcDbEntity
  8
1
  6
Continuous
 62
     2
100
AcDbLine
 10
67.04620484004747
 20
151.4697076572014
 30
0.0
 11
72.04620484004727
 21
151.4697076572014
 31
0.0
  0
LINE
  5
201
330
71
100
AcDbEntity
  8
1
  6
Continuous
 62
     6
100
AcDbLine
 10
67.04620484004747
 20
151.4697076572014
 30
0.0
 11
67.04620484004727
 21
186.4697076572014
 31
0.0
  0
LINE
  5
202
330
71
100
AcDbEntity
  8
1
  6
Continuous
 62
     2
100
AcDbLine
 10
72.04620484004727
 20
151.4697076572014
 30
0.0
 11
72.04620484004727
 21
206.4697076572014
 31
0.0
  0
LINE
  5
203
330
71
100
AcDbEntity
  8
1
  6
Continuous
 62
     2
100
AcDbLine
 10
72.04620484004727
 20
1.46970765720135
 30
0.0
 11
72.04620484004727
 21
51.46970765720147
 31
0.0
  0
LINE
  5
204
330
71
100
AcDbEntity
  8
1
  6
Continuous
 62
     2
100
AcDbLine
 10
-76.45379515995171
 20
206.4697076572014
 30
0.0
 11
-224.9537951599508
 21
206.4697076572014
 31
0.0
  0
LINE
  5
205
330
71
100
AcDbEntity
  8
1
  6
Continuous
 62
     2
100
AcDbLine
 10
-76.45379515995171
 20
206.4697076572014
 30
0.0
 11
-76.45379515995171
 21
197.2610158125
 31
0.0
  0
LINE
  5
206
330
71
100
AcDbEntity
  8
1
  6
Continuous
 62
     2
100
AcDbLine
 10
-224.9537951599508
 20
-3.53029234279876
 30
0.0
 11
-219.9537951599498
 21
-3.53029234279876
 31
0.0
  0
LINE
  5
207
330
71
100
AcDbEntity
  8
1
  6
Continuous
 62
     2
100
AcDbLine
 10
-224.9537951599508
 20
206.4697076572014
 30
0.0
 11
-224.9537951599508
 21
151.4697076572014
 31
0.0
  0
LINE
  5
208
330
71
100
AcDbEntity
  8
1
  6
Continuous
 62
     6
100
AcDbLine
 10
-219.9537951599508
 20
186.4697076572014
 30
0.0
 11
-219.9537951599507
 21
151.4697076572014
 31
0.0
  0
LINE
  5
209
330
71
100
AcDbEntity
  8
1
  6
Continuous
 62
     2
100
AcDbLine
 10
-224.9537951599508
 20
151.4697076572014
 30
0.0
 11
-219.9537951599507
 21
151.4697076572014
 31
0.0
  0
LINE
  5
20A
330
71
100
AcDbEntity
  8
1
  6
Continuous
 62
     2
100
AcDbLine
 10
-224.9537951599508
 20
151.4697076572014
 30
0.0
 11
-224.9537951599508
 21
101.4697076572013
 31
0.0
  0
LINE
  5
20B
330
71
100
AcDbEntity
  8
1
  6
Continuous
 62
     6
100
AcDbLine
 10
-219.9537951599507
 20
151.4697076572014
 30
0.0
 11
-219.9537951599502
 21
101.4697076572013
 31
0.0
  0
LINE
  5
20C
330
71
100
AcDbEntity
  8
1
  6
Continuous
 62
     2
100
AcDbLine
 10
-224.9537951599508
 20
101.4697076572013
 30
0.0
 11
-219.9537951599502
 21
101.4697076572013
 31
0.0
  0
LINE
  5
20D
330
71
100
AcDbEntity
  8
1
  6
Continuous
 62
     2
100
AcDbLine
 10
-224.9537951599508
 20
101.4697076572013
 30
0.0
 11
-224.9537951599508
 21
51.46970765720147
 31
0.0
  0
LINE
  5
20E
330
71
100
AcDbEntity
  8
1
  6
Continuous
 62
     6
100
AcDbLine
 10
-219.9537951599502
 20
101.4697076572013
 30
0.0
 11
-219.95379515995
 21
51.46970765720147
 31
0.0
  0
LINE
  5
20F
330
71
100
AcDbEntity
  8
1
  6
Continuous
 62
     2
100
AcDbLine
 10
-224.9537951599508
 20
51.46970765720147
 30
0.0
 11
-219.95379515995
 21
51.46970765720147
 31
0.0
  0
LINE
  5
210
330
71
100
AcDbEntity
  8
1
  6
Continuous
 62
     2
100
AcDbLine
 10
-224.9537951599508
 20
51.46970765720147
 30
0.0
 11
-224.9537951599508
 21
1.46970765720135
 31
0.0
  0
LINE
  5
211
330
71
100
AcDbEntity
  8
1
  6
Continuous
 62
     6
100
AcDbLine
 10
-219.95379515995
 20
51.46970765720147
 30
0.0
 11
-219.9537951599498
 21
1.46970765720135
 31
0.0
  0
LINE
  5
212
330
71
100
AcDbEntity
  8
1
  6
Continuous
 62
     2
100
AcDbLine
 10
-176.4537951599517
 20
-3.53029234279876
 30
0.0
 11
-176.4537951599517
 21
1.46970765720135
 31
0.0
  0
LINE
  5
213
330
71
100
AcDbEntity
  8
1
  6
Continuous
 62
     2
100
AcDbLine
 10
-176.4537951599517
 20
-3.53029234279876
 30
0.0
 11
-126.4537951599519
 21
-3.53029234279876
 31
0.0
  0
LINE
  5
214
330
71
100
AcDbEntity
  8
1
  6
Continuous
 62
     2
100
AcDbLine
 10
-126.4537951599519
 20
-3.53029234279876
 30
0.0
 11
-126.4537951599519
 21
1.46970765720135
 31
0.0
  0
LINE
  5
215
330
71
100
AcDbEntity
  8
1
  6
Continuous
 62
     2
100
AcDbLine
 10
-126.4537951599519
 20
-3.53029234279876
 30
0.0
 11
-76.45379515995171
 21
-3.53029234279876
 31
0.0
  0
LINE
  5
216
330
71
100
AcDbEntity
  8
1
  6
Continuous
 62
     2
100
AcDbLine
 10
-76.45379515995171
 20
-3.53029234279876
 30
0.0
 11
-76.45379515995171
 21
1.46970765720135
 31
0.0
  0
LINE
  5
217
330
71
100
AcDbEntity
  8
1
  6
Continuous
 62
     2
100
AcDbLine
 10
-76.45379515995171
 20
-3.53029234279876
 30
0.0
 11
-26.45379515995174
 21
-3.53029234279876
 31
0.0
  0
LINE
  5
218
330
71
100
AcDbEntity
  8
1
  6
Continuous
 62
     2
100
AcDbLine
 10
-26.45379515995174
 20
-3.53029234279876
 30
0.0
 11
-26.45379515995174
 21
1.46970765720135
 31
0.0
  0
LINE
  5
219
330
71
100
AcDbEntity
  8
1
  6
Continuous
 62
     2
100
AcDbLine
 10
23.54620484004826
 20
-3.53029234279876
 30
0.0
 11
23.54620484004826
 21
1.46970765720135
 31
0.0
  0
LINE
  5
21A
330
71
100
AcDbEntity
  8
1
  6
Continuous
 62
     2
100
AcDbLine
 10
23.54620484004826
 20
-3.53029234279876
 30
0.0
 11
-26.45379515995174
 21
-3.53029234279876
 31
0.0
  0
LINE
  5
21B
330
71
100
AcDbEntity
  8
1
  6
Continuous
 62
     2
100
AcDbLine
 10
-219.9537951599498
 20
1.46970765720135
 30
0.0
 11
-219.9537951599498
 21
-3.53029234279876
 31
0.0
  0
LINE
  5
21C
330
71
100
AcDbEntity
  8
1
  6
Continuous
 62
     2
100
AcDbLine
 10
-219.9537951599498
 20
-3.53029234279876
 30
0.0
 11
-176.4537951599517
 21
-3.53029234279876
 31
0.0
  0
LINE
  5
21D
330
71
100
AcDbEntity
  8
1
  6
Continuous
 62
     2
100
AcDbLine
 10
-219.9537951599498
 20
1.46970765720135
 30
0.0
 11
-224.9537951599508
 21
1.46970765720135
 31
0.0
  0
LINE
  5
21E
330
71
100
AcDbEntity
  8
1
  6
Continuous
 62
     2
100
AcDbLine
 10
-224.9537951599508
 20
1.46970765720135
 30
0.0
 11
-224.9537951599508
 21
-3.53029234279876
 31
0.0
  0
LINE
  5
21F
330
71
100
AcDbEntity
  8
1
  6
Continuous
 62
     6
100
AcDbLine
 10
67.04620484004828
 20
1.46970765720135
 30
0.0
 11
67.04620484004957
 21
9.96970765720135
 31
0.0
  0
LINE
  5
220
330
71
100
AcDbEntity
  8
1
  6
Continuous
 62
     6
100
AcDbLine
 10
-26.09859968670182
 20
1.46970765720124
 30
0.0
 11
23.54620484004826
 21
1.46970765720135
 31
0.0
  0
LINE
  5
221
330
71
100
AcDbEntity
  8
1
  6
Continuous
 62
     6
100
AcDbLine
 10
-178.753795159952
 20
1.46970765720124
 30
0.0
 11
-176.4537951599517
 21
1.46970765720135
 31
0.0
  0
LINE
  5
222
330
71
100
AcDbEntity
  8
1
  6
Continuous
 62
     6
100
AcDbLine
 10
-76.45379515995171
 20
1.46970765720135
 30
0.0
 11
-126.4537951599519
 21
1.46970765720135
 31
0.0
  0
LINE
  5
223
330
71
100
AcDbEntity
  8
1
  6
Continuous
 62
     7
100
AcDbLine
 10
-62.49859968670174
 20
18.46970765720135
 30
0.0
 11
-62.49859968670174
 21
5.71970765720124
 31
0.0
  0
LINE
  5
224
330
71
100
AcDbEntity
  8
1
  6
Continuous
 62
     7
100
AcDbLine
 10
-26.09859968670182
 20
18.46970765720135
 30
0.0
 11
-26.09859968670182
 21
5.71970765720135
 31
0.0
  0
LINE
  5
225
330
71
100
AcDbEntity
  8
1
  6
Continuous
 62
     6
100
AcDbLine
 10
-178.753795159952
 20
1.46970765720124
 30
0.0
 11
-184.95379515995
 21
1.46970765720135
 31
0.0
  0
LINE
  5
226
330
71
100
AcDbEntity
  8
1
  6
Continuous
 62
     6
100
AcDbLine
 10
-26.09859968670182
 20
1.46970765720124
 30
0.0
 11
-26.45379515995174
 21
1.46970765720135
 31
0.0
  0
LINE
  5
227
330
71
100
AcDbEntity
  8
1
  6
Continuous
 62
     6
100
AcDbLine
 10
67.04620484004997
 20
18.46970765720135
 30
0.0
 11
67.04620484004957
 21
9.96970765720135
 31
0.0
  0
LINE
  5
228
330
71
100
AcDbEntity
  8
1
  6
Continuous
 62
     6
100
AcDbLine
 10
-184.95379515995
 20
1.46970765720135
 30
0.0
 11
-219.9537951599498
 21
1.46970765720135
 31
0.0
  0
LINE
  5
229
330
71
100
AcDbEntity
  8
1
  6
Continuous
 62
     2
100
AcDbLine
 10
-58.26194480013913
 20
23.84470765720127
 30
0.0
 11
-53.26194480013913
 21
25.09470765720127
 31
0.0
  0
LINE
  5
22A
330
71
100
AcDbEntity
  8
1
  6
Continuous
 62
     2
100
AcDbLine
 10
-58.26194480013913
 20
21.34470765720127
 30
0.0
 11
-58.26194480013913
 21
23.84470765720127
 31
0.0
  0
LINE
  5
22B
330
71
100
AcDbEntity
  8
1
  6
Continuous
 62
     2
100
AcDbLine
 10
-53.26194480013913
 20
20.09470765720127
 30
0.0
 11
-58.26194480013913
 21
21.34470765720127
 31
0.0
  0
LINE
  5
22C
330
71
100
AcDbEntity
  8
1
  6
Continuous
 62
     2
100
AcDbLine
 10
-53.26194480013913
 20
25.09470765720127
 30
0.0
 11
-53.26194480013913
 21
20.09470765720127
 31
0.0
  0
LINE
  5
22D
330
71
100
AcDbEntity
  8
1
  6
Continuous
 62
     7
100
AcDbLine
 10
-62.49859968670174
 20
5.71970765720124
 30
0.0
 11
-44.29859968670172
 21
5.71970765720135
 31
0.0
  0
LINE
  5
22E
330
71
100
AcDbEntity
  8
1
  6
Continuous
 62
     7
100
AcDbLine
 10
-62.49859968670174
 20
5.71970765720124
 30
0.0
 11
-62.49859968670174
 21
1.46970765720124
 31
0.0
  0
LINE
  5
22F
330
71
100
AcDbEntity
  8
1
  6
Continuous
 62
     7
100
AcDbLine
 10
-26.09859968670182
 20
5.71970765720135
 30
0.0
 11
-26.09859968670182
 21
1.46970765720124
 31
0.0
  0
LINE
  5
230
330
71
100
AcDbEntity
  8
1
  6
Continuous
 62
     7
100
AcDbLine
 10
-44.29859968670172
 20
5.71970765720135
 30
0.0
 11
-44.29859968670172
 21
1.46970765720135
 31
0.0
  0
LINE
  5
231
330
71
100
AcDbEntity
  8
1
  6
Continuous
 62
     6
100
AcDbLine
 10
-44.29859968670172
 20
1.46970765720135
 30
0.0
 11
-62.49859968670174
 21
1.46970765720124
 31
0.0
  0
LINE
  5
232
330
71
100
AcDbEntity
  8
1
  6
Continuous
 62
     7
100
AcDbLine
 10
-44.29859968670172
 20
5.71970765720135
 30
0.0
 11
-26.09859968670182
 21
5.71970765720135
 31
0.0
  0
LINE
  5
233
330
71
100
AcDbEntity
  8
1
  6
Continuous
 62
     6
100
AcDbLine
 10
-62.49859968670174
 20
26.96970765720135
 30
0.0
 11
67.04620484004997
 21
26.96970765720135
 31
0.0
  0
ARC
  5
234
102
{ACAD_REACTORS
330
29C
330
29D
102
}
330
71
100
AcDbEntity
  8
0
  6
Continuous
 62
     2
100
AcDbCircle
 10
-47.10695168774174
 20
10.29011241912295
 30
0.0
 40
0.7717997786796958
100
AcDbArc
 50
321.8795802028416
 51
38.12041979715298
  0
ARC
  5
235
102
{ACAD_REACTORS
330
29C
330
29D
102
}
330
71
100
AcDbEntity
  8
0
  6
Continuous
 62
     2
100
AcDbCircle
 10
-46.90721165139533
 20
10.13338124100295
 30
0.0
 40
0.5179085730137343
100
AcDbArc
 50
218.120419797193
 51
321.8795802028012
  0
ARC
  5
236
102
{ACAD_REACTORS
330
29C
330
29D
102
}
330
71
100
AcDbEntity
  8
0
  6
Continuous
 62
     2
100
AcDbCircle
 10
-46.70747161504923
 20
10.29011241912295
 30
0.0
 40
0.7717997786794599
100
AcDbArc
 50
141.8795802028366
 51
218.1204197971688
  0
ARC
  5
237
102
{ACAD_REACTORS
330
29C
330
29D
102
}
330
71
100
AcDbEntity
  8
0
  6
Continuous
 62
     2
100
AcDbCircle
 10
-46.90721165139533
 20
10.44684359724346
 30
0.0
 40
0.5179085730132965
100
AcDbArc
 50
38.12041979714657
 51
141.8795802028592
  0
ARC
  5
238
102
{ACAD_REACTORS
330
294
330
295
102
}
330
71
100
AcDbEntity
  8
0
  6
Continuous
 62
     2
100
AcDbCircle
 10
-49.96922578695921
 20
8.87964605371477
 30
0.0
 40
2.227384008973479
100
AcDbArc
 50
58.06909105004074
 51
71.55192388186742
  0
ARC
  5
239
102
{ACAD_REACTORS
330
294
330
295
102
}
330
71
100
AcDbEntity
  8
0
  6
Continuous
 62
     2
100
AcDbCircle
 10
-49.70749808600044
 20
10.49518384846195
 30
0.0
 40
0.5115800601948823
100
AcDbArc
 50
113.3722778881998
 51
151.4785267423044
  0
ARC
  5
23A
102
{ACAD_REACTORS
330
294
330
295
102
}
330
71
100
AcDbEntity
  8
0
  6
Continuous
 62
     2
100
AcDbCircle
 10
-49.33014082792013
 20
10.29011241912295
 30
0.0
 40
0.9410597353332545
100
AcDbArc
 50
151.4785267422669
 51
208.5214732577058
  0
ARC
  5
23B
102
{ACAD_REACTORS
330
294
330
295
102
}
330
71
100
AcDbEntity
  8
0
  6
Continuous
 62
     2
100
AcDbCircle
 10
-50.12709866205213
 20
13.60279336437935
 30
0.0
 40
4.852596863498136
100
AcDbArc
 50
275.1581447696248
 51
285.9799912583529
  0
ARC
  5
23C
102
{ACAD_REACTORS
330
294
330
295
102
}
330
71
100
AcDbEntity
  8
0
  6
Continuous
 62
     2
100
AcDbCircle
 10
-49.83824256731623
 20
10.40290278115776
 30
0.0
 40
1.639695123939394
100
AcDbArc
 50
195.0618917770894
 51
275.1581447696395
  0
ARC
  5
23D
102
{ACAD_REACTORS
330
294
330
295
102
}
330
71
100
AcDbEntity
  8
0
  6
Continuous
 62
     2
100
AcDbCircle
 10
-50.25737041077903
 20
10.29011241912295
 30
0.0
 40
1.205656168390951
100
AcDbArc
 50
164.9381082228766
 51
195.0618917770948
  0
ARC
  5
23E
102
{ACAD_REACTORS
330
294
330
295
102
}
330
71
100
AcDbEntity
  8
0
  6
Continuous
 62
     2
100
AcDbCircle
 10
-49.83824256731623
 20
10.17732205708805
 30
0.0
 40
1.639695123940505
100
AcDbArc
 50
84.84185523036236
 51
164.9381082228866
  0
ARC
  5
23F
102
{ACAD_REACTORS
330
298
330
299
102
}
330
71
100
AcDbEntity
  8
0
  6
Continuous
 62
     2
100
AcDbCircle
 10
-54.66825682147814
 20
11.32393921347725
 30
0.0
 40
0.3157169230765233
100
AcDbArc
 50
115.3740086783512
 51
180.0
  0
ARC
  5
240
102
{ACAD_REACTORS
330
298
330
299
102
}
330
71
100
AcDbEntity
  8
0
  6
Continuous
 62
     2
100
AcDbCircle
 10
-54.66825682147814
 20
13.54222241341347
 30
0.0
 40
0.315716923076792
100
AcDbArc
 50
180.0
 51
244.6259913216495
  0
ARC
  5
241
102
{ACAD_REACTORS
330
298
330
299
102
}
330
71
100
AcDbEntity
  8
0
  6
Continuous
 62
     2
100
AcDbCircle
 10
-54.66264068616812
 20
12.44492275435115
 30
0.0
 40
2.018561131933257
100
AcDbArc
 50
269.8110329575858
 51
90.18896704241416
  0
ARC
  5
242
102
{ACAD_REACTORS
330
298
330
299
102
}
330
71
100
AcDbEntity
  8
0
  6
Continuous
 62
     2
100
AcDbCircle
 10
-54.66825682147814
 20
10.74208780678217
 30
0.0
 40
0.315716923076792
100
AcDbArc
 50
180.0
 51
269.8110329574542
  0
ARC
  5
243
102
{ACAD_REACTORS
330
296
330
297
102
}
330
71
100
AcDbEntity
  8
0
  6
Continuous
 62
     2
100
AcDbCircle
 10
-33.60479660674753
 20
10.49518384846195
 30
0.0
 40
0.5115800601944093
100
AcDbArc
 50
109.3371432194855
 51
151.4785267424224
  0
ARC
  5
244
102
{ACAD_REACTORS
330
296
330
297
102
}
330
71
100
AcDbEntity
  8
0
  6
Continuous
 62
     2
100
AcDbCircle
 10
-33.60479660674753
 20
10.08504098978446
 30
0.0
 40
0.5115800601960153
100
AcDbArc
 50
208.521473257687
 51
246.6277221118449
  0
ARC
  5
245
102
{ACAD_REACTORS
330
296
330
297
102
}
330
71
100
AcDbEntity
  8
0
  6
Continuous
 62
     2
100
AcDbCircle
 10
-34.15466893152492
 20
10.29011241912295
 30
0.0
 40
1.205656168393009
100
AcDbArc
 50
164.938108222903
 51
195.0618917770959
  0
ARC
  5
246
102
{ACAD_REACTORS
330
296
330
297
102
}
330
71
100
AcDbEntity
  8
0
  6
Continuous
 62
     2
100
AcDbCircle
 10
-33.73554108806331
 20
10.17732205708805
 30
0.0
 40
1.639695123940211
100
AcDbArc
 50
90.0
 51
164.9381082228951
  0
ARC
  5
247
102
{ACAD_REACTORS
330
29A
330
29B
102
}
330
71
100
AcDbEntity
  8
0
  6
Continuous
 62
     2
100
AcDbCircle
 10
-43.16253618076703
 20
13.64930289529727
 30
0.0
 40
1.526904761905881
100
AcDbArc
 50
90.0
 51
270.0
  0
ARC
  5
248
102
{ACAD_REACTORS
330
29E
330
29F
102
}
330
71
100
AcDbEntity
  8
0
  6
Continuous
 62
     2
100
AcDbCircle
 10
-49.90522692599282
 20
14.16023798709196
 30
0.0
 40
0.35286382467112
100
AcDbArc
 50
270.0
 51
90.0
  0
ARC
  5
249
102
{ACAD_REACTORS
330
298
330
299
102
}
330
71
100
AcDbEntity
  8
0
  6
Continuous
 62
     2
100
AcDbCircle
 10
-57.24380550800984
 20
14.14793517856836
 30
0.0
 40
0.3157169230761987
100
AcDbArc
 50
90.0
 51
180.0
  0
ARC
  5
24A
102
{ACAD_REACTORS
330
298
330
299
102
}
330
71
100
AcDbEntity
  8
0
  6
Continuous
 62
     2
100
AcDbCircle
 10
-55.24538779942523
 20
12.43308081344566
 30
0.0
 40
0.9118975235576114
100
AcDbArc
 50
115.1944106485283
 51
244.8055893514877
  0
ARC
  5
24B
102
{ACAD_REACTORS
330
298
330
299
102
}
330
71
100
AcDbEntity
  8
0
  6
Continuous
 62
     2
100
AcDbCircle
 10
-55.76797224700022
 20
11.32225106738287
 30
0.0
 40
0.3157169230766002
100
AcDbArc
 50
0.0
 51
64.8055893514591
  0
ARC
  5
24C
102
{ACAD_REACTORS
330
298
330
299
102
}
330
71
100
AcDbEntity
  8
0
  6
Continuous
 62
     2
100
AcDbCircle
 10
-57.83770018475633
 20
9.18745227260095
 30
0.0
 40
0.4242446153828041
100
AcDbArc
 50
180.0
 51
270.0
  0
ARC
  5
24D
102
{ACAD_REACTORS
330
29A
330
29B
102
}
330
71
100
AcDbEntity
  8
0
  6
Continuous
 62
     2
100
AcDbCircle
 10
-42.94626417060184
 20
13.80603407341775
 30
0.0
 40
0.5179085730135321
100
AcDbArc
 50
38.12041979714286
 51
141.8795802028484
  0
ARC
  5
24E
102
{ACAD_REACTORS
330
29A
330
29B
102
}
330
71
100
AcDbEntity
  8
0
  6
Continuous
 62
     2
100
AcDbCircle
 10
-42.74652413425554
 20
13.64930289529727
 30
0.0
 40
0.7717997786796724
100
AcDbArc
 50
141.8795802028404
 51
218.120419797156
  0
ARC
  5
24F
102
{ACAD_REACTORS
330
29C
330
29D
102
}
330
71
100
AcDbEntity
  8
0
  6
Continuous
 62
     2
100
AcDbCircle
 10
-46.90721165139533
 20
10.82868742942625
 30
0.0
 40
2.065479772208509
100
AcDbArc
 50
242.45185182434
 51
297.5481481756871
  0
ARC
  5
250
102
{ACAD_REACTORS
330
29C
330
29D
102
}
330
71
100
AcDbEntity
  8
0
  6
Continuous
 62
     2
100
AcDbCircle
 10
-46.90721165139533
 20
9.75153740882016
 30
0.0
 40
2.065479772208569
100
AcDbArc
 50
62.45185182430639
 51
117.5481481756665
  0
ARC
  5
251
102
{ACAD_REACTORS
330
29C
330
29D
102
}
330
71
100
AcDbEntity
  8
0
  6
Continuous
 62
     2
100
AcDbCircle
 10
-47.18815154322863
 20
10.29011241912295
 30
0.0
 40
1.458034083651493
100
AcDbArc
 50
117.5481481756627
 51
242.4518518243373
  0
ARC
  5
252
102
{ACAD_REACTORS
330
29C
330
29D
102
}
330
71
100
AcDbEntity
  8
0
  6
Continuous
 62
     2
100
AcDbCircle
 10
-46.62627175956203
 20
10.29011241912295
 30
0.0
 40
1.458034083652004
100
AcDbArc
 50
297.548148175701
 51
62.45185182429896
  0
ARC
  5
253
102
{ACAD_REACTORS
330
29A
330
29B
102
}
330
71
100
AcDbEntity
  8
0
  6
Continuous
 62
     2
100
AcDbCircle
 10
-42.94626417060184
 20
13.49257171717684
 30
0.0
 40
0.5179085730134261
100
AcDbArc
 50
218.1204197971508
 51
321.8795802028579
  0
ARC
  5
254
102
{ACAD_REACTORS
330
29A
330
29B
102
}
330
71
100
AcDbEntity
  8
0
  6
Continuous
 62
     2
100
AcDbCircle
 10
-43.14600420694802
 20
13.64930289529727
 30
0.0
 40
0.7717997786796351
100
AcDbArc
 50
321.879580202844
 51
38.12041979715956
  0
ARC
  5
255
102
{ACAD_REACTORS
330
298
330
299
102
}
330
71
100
AcDbEntity
  8
0
  6
Continuous
 62
     2
100
AcDbCircle
 10
-52.36438809403953
 20
9.18745227260095
 30
0.0
 40
0.4242446153832873
100
AcDbArc
 50
270.0
 51
0.0
  0
ARC
  5
256
102
{ACAD_REACTORS
330
298
330
299
102
}
330
71
100
AcDbEntity
  8
0
  6
Continuous
 62
     2
100
AcDbCircle
 10
-52.36438809403953
 20
14.75196304180116
 30
0.0
 40
0.4242446153838912
100
AcDbArc
 50
0.0
 51
90.0
  0
ARC
  5
257
102
{ACAD_REACTORS
330
298
330
299
102
}
330
71
100
AcDbEntity
  8
0
  6
Continuous
 62
     2
100
AcDbCircle
 10
-57.83770018475633
 20
14.75196304180116
 30
0.0
 40
0.4242446153838006
100
AcDbArc
 50
90.0
 51
180.0
  0
ARC
  5
258
102
{ACAD_REACTORS
330
298
330
299
102
}
330
71
100
AcDbEntity
  8
0
  6
Continuous
 62
     2
100
AcDbCircle
 10
-55.76797224700022
 20
9.79148013585126
 30
0.0
 40
0.3157169230767067
100
AcDbArc
 50
270.0
 51
0.0
  0
ARC
  5
259
102
{ACAD_REACTORS
330
298
330
299
102
}
330
71
100
AcDbEntity
  8
0
  6
Continuous
 62
     2
100
AcDbCircle
 10
-55.76797224700022
 20
13.54391055950785
 30
0.0
 40
0.3157169230761233
100
AcDbArc
 50
295.1944106485409
 51
0.0
  0
ARC
  5
25A
102
{ACAD_REACTORS
330
298
330
299
102
}
330
71
100
AcDbEntity
  8
0
  6
Continuous
 62
     2
100
AcDbCircle
 10
-55.76797224700022
 20
14.14793517856836
 30
0.0
 40
0.3157169230766002
100
AcDbArc
 50
0.0
 51
90.0
  0
ARC
  5
25B
102
{ACAD_REACTORS
330
298
330
299
102
}
330
71
100
AcDbEntity
  8
0
  6
Continuous
 62
     2
100
AcDbCircle
 10
-57.24380550800984
 20
9.79148013585126
 30
0.0
 40
0.3157169230756907
100
AcDbArc
 50
180.0
 51
270.0
  0
ARC
  5
25C
102
{ACAD_REACTORS
330
29E
330
29F
102
}
330
71
100
AcDbEntity
  8
0
  6
Continuous
 62
     2
100
AcDbCircle
 10
-49.46375439975444
 20
14.12084201586947
 30
0.0
 40
1.055365641333712
100
AcDbArc
 50
270.0
 51
90.0
  0
ARC
  5
25D
102
{ACAD_REACTORS
330
296
330
297
102
}
330
71
100
AcDbEntity
  8
0
  6
Continuous
 62
     2
100
AcDbCircle
 10
-33.73554108806331
 20
10.40290278115776
 30
0.0
 40
1.639695123940454
100
AcDbArc
 50
195.061891777101
 51
275.158144769676
  0
ARC
  5
25E
102
{ACAD_REACTORS
330
296
330
297
102
}
330
71
100
AcDbEntity
  8
0
  6
Continuous
 62
     2
100
AcDbCircle
 10
-34.02439718279913
 20
13.60279336437935
 30
0.0
 40
4.852596863498822
100
AcDbArc
 50
275.1581447696362
 51
285.9799912583387
  0
ARC
  5
25F
102
{ACAD_REACTORS
330
296
330
297
102
}
330
71
100
AcDbEntity
  8
0
  6
Continuous
 62
     2
100
AcDbCircle
 10
-33.86652430770633
 20
11.70057878453105
 30
0.0
 40
2.227384008972747
100
AcDbArc
 50
288.4480761181333
 51
301.9309089499398
  0
ARC
  5
260
102
{ACAD_REACTORS
330
296
330
297
102
}
330
71
100
AcDbEntity
  8
0
  6
Continuous
 62
     2
100
AcDbCircle
 10
-33.44835657404443
 20
10.44703300849446
 30
0.0
 40
0.9059297849852789
100
AcDbArc
 50
246.6277221118187
 51
288.4480761180816
  0
ARC
  5
261
102
{ACAD_REACTORS
330
296
330
297
102
}
330
71
100
AcDbEntity
  8
0
  6
Continuous
 62
     2
100
AcDbCircle
 10
-33.22743934866614
 20
10.29011241912295
 30
0.0
 40
0.9410597353348844
100
AcDbArc
 50
151.4785267423624
 51
208.5214732576698
  0
ARC
  5
262
102
{ACAD_REACTORS
330
296
330
297
102
}
330
71
100
AcDbEntity
  8
0
  6
Continuous
 62
     2
100
AcDbCircle
 10
-33.45812660864382
 20
10.07722886807906
 30
0.0
 40
0.9545230068260917
100
AcDbArc
 50
90.0
 51
109.337143219432
  0
ARC
  5
263
102
{ACAD_REACTORS
330
298
330
299
102
}
330
71
100
AcDbEntity
  8
0
  6
Continuous
 62
     2
100
AcDbCircle
 10
-54.66825682147814
 20
14.14775770192026
 30
0.0
 40
0.315716923076064
100
AcDbArc
 50
90.18896704254594
 51
180.0
  0
ARC
  5
264
102
{ACAD_REACTORS
330
298
330
299
102
}
330
71
100
AcDbEntity
  8
0
  6
Continuous
 62
     2
100
AcDbCircle
 10
-55.19429951956602
 20
12.43308081344566
 30
0.0
 40
0.9118481501444714
100
AcDbArc
 50
295.3740086781771
 51
64.62599132180651
  0
ARC
  5
265
102
{ACAD_REACTORS
330
294
330
295
102
}
330
71
100
AcDbEntity
  8
0
  6
Continuous
 62
     2
100
AcDbCircle
 10
-49.96922578695921
 20
11.70057878453164
 30
0.0
 40
2.227384008972731
100
AcDbArc
 50
288.4480761181326
 51
301.9309089499593
  0
ARC
  5
266
102
{ACAD_REACTORS
330
294
330
295
102
}
330
71
100
AcDbEntity
  8
0
  6
Continuous
 62
     2
100
AcDbCircle
 10
-49.55105805329842
 20
10.44703300849446
 30
0.0
 40
0.9059297849849237
100
AcDbArc
 50
246.6277221118707
 51
288.4480761181584
  0
ARC
  5
267
102
{ACAD_REACTORS
330
294
330
295
102
}
330
71
100
AcDbEntity
  8
0
  6
Continuous
 62
     2
100
AcDbCircle
 10
-49.70749808600044
 20
10.08504098978446
 30
0.0
 40
0.5115800601948034
100
AcDbArc
 50
208.5214732576956
 51
246.6277221118266
  0
ARC
  5
268
102
{ACAD_REACTORS
330
294
330
295
102
}
330
71
100
AcDbEntity
  8
0
  6
Continuous
 62
     2
100
AcDbCircle
 10
-49.55105805329842
 20
10.13319182975135
 30
0.0
 40
0.9059297849853312
100
AcDbArc
 50
71.55192388185365
 51
113.3722778881292
  0
ARC
  5
269
102
{ACAD_REACTORS
330
294
330
295
102
}
330
71
100
AcDbEntity
  8
0
  6
Continuous
 62
     2
100
AcDbCircle
 10
-50.12709866205213
 20
6.97743147386706
 30
0.0
 40
4.852596863498068
100
AcDbArc
 50
74.02000874164739
 51
84.84185523037515
  0
CIRCLE
  5
26A
102
{ACAD_REACTORS
330
298
330
299
102
}
330
71
100
AcDbEntity
  8
0
  6
Continuous
 62
     2
100
AcDbCircle
 10
-55.21811453423882
 20
12.43308081344566
 30
0.0
 40
0.4709789327785003
  0
CIRCLE
  5
26B
330
71
100
AcDbEntity
  8
1
  6
Continuous
 62
     2
100
AcDbCircle
 10
-49.76194480013913
 20
22.59470765720127
 30
0.0
 40
1.249999999999915
  0
CIRCLE
  5
26C
330
71
100
AcDbEntity
  8
1
  6
Continuous
 62
     2
100
AcDbCircle
 10
-49.76194480013913
 20
22.59470765720127
 30
0.0
 40
2.5
  0
TEXT
  5
26D
330
71
100
AcDbEntity
  8
1
 62
     7
100
AcDbText
 10
-7.12505196468794
 20
19.76970765720125
 30
0.0
 40
2.5
  1
/
 41
0.9
  7
CONVERTER_11
100
AcDbText
  0
TEXT
  5
26F
330
71
100
AcDbEntity
  8
1
 62
     7
100
AcDbText
 10
-4.96868746764594
 20
19.76970765720125
 30
0.0
 40
2.5
  1
00
 41
0.81
  7
CONVERTER_12
100
AcDbText
  0
TEXT
  5
270
330
71
100
AcDbEntity
  8
1
 62
     3
100
AcDbText
 10
32.62779655837116
 20
19.76970765720125
 30
0.0
 40
2.5
  1
03.03.2018
 41
0.81
  7
CONVERTER_12
100
AcDbText
  0
MTEXT
  5
271
330
71
100
AcDbEntity
  8
1
 62
     2
100
AcDbMText
 10
32.62779655837116
 20
25.96970765720127
 30
0.0
 40
1.8
 41
0.0
 71
     1
 72
     1
  1
date
  7
CONVERTER_11
 73
     1
 44
1.32052821128451
  0
MTEXT
  5
272
330
71
100
AcDbEntity
  8
1
 62
     2
100
AcDbMText
 10
2.80140031329827
 20
17.46970765720127
 30
0.0
 40
1.8
 41
0.0
 71
     1
 72
     1
  1
document-type
  7
CONVERTER_11
 73
     1
 44
1.20048019207683
  0
TEXT
  5
273
330
71
100
AcDbEntity
  8
1
 62
     3
100
AcDbText
 10
2.80140031329827
 20
11.26970765720125
 30
0.0
 40
2.5
  1
TECDOC 2D_Productdrawing
 41
0.81
  7
CONVERTER_12
100
AcDbText
  0
MTEXT
  5
275
330
71
100
AcDbEntity
  8
1
 62
     2
100
AcDbMText
 10
-24.99859968670174
 20
25.96970765720135
 30
0.0
 40
1.8
 41
0.0
 71
     1
 72
     1
  1
document-No. / RI
  7
CONVERTER_13
 73
     1
 44
1.32052821128451
  0
TEXT
  5
276
330
71
100
AcDbEntity
  8
1
 62
     7
100
AcDbText
 10
-24.99859968670174
 20
19.76970765720125
 30
0.0
 40
2.5
  1
00357207
 41
0.81
  7
CONVERTER_12
100
AcDbText
  0
MTEXT
  5
278
330
71
100
AcDbEntity
  8
1
 62
     3
100
AcDbMText
 10
62.58700069921058
 20
19.76970765720145
 30
0.0
 40
2.5
 41
0.0
 71
     8
 72
     1
  1
1:1
  7
CONVERTER_14
 73
     1
 44
1.32052821128451
  0
MTEXT
  5
279
330
71
100
AcDbEntity
  8
1
 62
     2
100
AcDbMText
 10
59.22779655837098
 20
25.96970765720135
 30
0.0
 40
1.8
 41
0.0
 71
     1
 72
     1
  1
scale
  7
CONVERTER_11
 73
     1
 44
1.20048019207683
  0
MTEXT
  5
27A
330
71
100
AcDbEntity
  8
1
 62
     2
100
AcDbMText
 10
-24.99859968670174
 20
17.46970765720135
 30
0.0
 40
1.8
 41
0.0
 71
     1
 72
     1
  1
ident.-No.
  7
CONVERTER_11
 73
     1
 44
1.20048019207683
  0
TEXT
  5
27B
330
71
100
AcDbEntity
  8
1
 62
     7
100
AcDbText
 10
-24.59859968670202
 20
11.26970765720125
 30
0.0
 40
2.5
  1
3205200
 41
0.81
  7
CONVERTER_12
100
AcDbText
  0
MTEXT
  5
27C
330
71
100
AcDbEntity
  8
1
 62
     2
100
AcDbMText
 10
-96.93661441174925
 20
14.21970765720127
 30
0.0
 40
2.0
 41
0.0
 71
     5
 72
     1
  1
General Information\P- Simplified representation\P- Document excluded from change process\P- Linear dimensions [mm]
  7
CONVERTER_11
 73
     1
 44
1.20048019207683
  0
MTEXT
  5
27D
330
71
100
AcDbEntity
  8
1
 62
     7
100
AcDbMText
 10
69.54620484004727
 20
76.46970765720326
 30
0.0
 40
3.5
 41
0.0
 71
     5
 72
     1
  1
C
  7
CONVERTER_11
 73
     1
 44
1.20048019207683
  0
MTEXT
  5
27E
330
71
100
AcDbEntity
  8
1
 62
     7
100
AcDbMText
 10
69.54620484004727
 20
178.9697076572014
 30
0.0
 40
3.5
 41
0.0
 71
     5
 72
     1
  1
A
  7
CONVERTER_11
 73
     1
 44
1.20048019207683
  0
MTEXT
  5
27F
330
71
100
AcDbEntity
  8
1
 62
     7
100
AcDbMText
 10
69.54620484004727
 20
126.4697076572033
 30
0.0
 40
3.5
 41
0.0
 71
     5
 72
     1
  1
B
  7
CONVERTER_11
 73
     1
 44
1.20048019207683
  0
MTEXT
  5
280
330
71
100
AcDbEntity
  8
1
 62
     7
100
AcDbMText
 10
69.54620484004727
 20
23.96970765720135
 30
0.0
 40
3.5
 41
0.0
 71
     5
 72
     1
  1
D
  7
CONVERTER_11
 73
     1
 44
1.20048019207683
  0
MTEXT
  5
281
330
71
100
AcDbEntity
  8
1
 62
     7
100
AcDbMText
 10
-200.7037951599513
 20
-1.03029234279876
 30
0.0
 40
3.5
 41
0.0
 71
     5
 72
     1
  1
1
  7
CONVERTER_11
 73
     1
 44
1.20048019207683
  0
MTEXT
  5
282
330
71
100
AcDbEntity
  8
1
 62
     7
100
AcDbMText
 10
-151.4537951599517
 20
-1.03029234279876
 30
0.0
 40
3.5
 41
0.0
 71
     5
 72
     1
  1
2
  7
CONVERTER_11
 73
     1
 44
1.20048019207683
  0
MTEXT
  5
283
330
71
100
AcDbEntity
  8
1
 62
     7
100
AcDbMText
 10
-101.4537951599517
 20
-1.03029234279876
 30
0.0
 40
3.5
 41
0.0
 71
     5
 72
     1
  1
3
  7
CONVERTER_11
 73
     1
 44
1.20048019207683
  0
MTEXT
  5
284
330
71
100
AcDbEntity
  8
1
 62
     7
100
AcDbMText
 10
-51.45379515995182
 20
-1.03029234279876
 30
0.0
 40
3.5
 41
0.0
 71
     5
 72
     1
  1
4
  7
CONVERTER_11
 73
     1
 44
1.20048019207683
  0
MTEXT
  5
285
330
71
100
AcDbEntity
  8
1
 62
     7
100
AcDbMText
 10
-1.45379515995174
 20
-1.03029234279876
 30
0.0
 40
3.5
 41
0.0
 71
     5
 72
     1
  1
5
  7
CONVERTER_11
 73
     1
 44
1.20048019207683
  0
MTEXT
  5
286
330
71
100
AcDbEntity
  8
1
 62
     7
100
AcDbMText
 10
47.79620484004747
 20
-1.03029234279876
 30
0.0
 40
3.5
 41
0.0
 71
     5
 72
     1
  1
6
  7
CONVERTER_11
 73
     1
 44
1.20048019207683
  0
MTEXT
  5
287
330
71
100
AcDbEntity
  8
1
 62
     7
100
AcDbMText
 10
-222.4537951599508
 20
178.9697076572014
 30
0.0
 40
3.5
 41
0.0
 71
     5
 72
     1
  1
A
  7
CONVERTER_11
 73
     1
 44
1.20048019207683
  0
MTEXT
  5
288
330
71
100
AcDbEntity
  8
1
 62
     7
100
AcDbMText
 10
-222.4537951599508
 20
126.4697076572014
 30
0.0
 40
3.5
 41
0.0
 71
     5
 72
     1
  1
B
  7
CONVERTER_11
 73
     1
 44
1.20048019207683
  0
MTEXT
  5
289
330
71
100
AcDbEntity
  8
1
 62
     7
100
AcDbMText
 10
-222.4537951599508
 20
76.46970765720135
 30
0.0
 40
3.5
 41
0.0
 71
     5
 72
     1
  1
C
  7
CONVERTER_11
 73
     1
 44
1.20048019207683
  0
MTEXT
  5
28A
330
71
100
AcDbEntity
  8
1
 62
     7
100
AcDbMText
 10
-222.4537951599508
 20
23.96970765720135
 30
0.0
 40
3.5
 41
0.0
 71
     5
 72
     1
  1
D
  7
CONVERTER_11
 73
     1
 44
1.20048019207683
  0
MTEXT
  5
28B
330
71
100
AcDbEntity
  8
1
 62
     3
100
AcDbMText
 10
-36.29859968670183
 20
22.59470765720135
 30
0.0
 40
2.5
 41
0.0
 71
     5
 72
     1
  1
DIN A4
  7
CONVERTER_11
 73
     1
 44
1.20048019207683
  0
MTEXT
  5
28C
330
71
100
AcDbEntity
  8
1
 62
     2
100
AcDbMText
 10
-25.09859968670182
 20
8.96970765720135
 30
0.0
 40
1.8
 41
0.0
 71
     1
 72
     1
  1
description
  7
CONVERTER_11
 73
     1
 44
1.20048019207683
  0
MTEXT
  5
28D
330
71
100
AcDbEntity
  8
1
 62
     7
100
AcDbMText
 10
20.47380257667376
 20
4.71970765720158
 30
0.0
 40
3.0
 41
0.0
 71
     5
 72
     1
  1
DS-QTC 1,5
  7
CONVERTER_12
 73
     1
 44
1.20048019207683
  0
TEXT
  5
28E
330
71
100
AcDbEntity
  8
1
 62
     2
100
AcDbText
 10
-38.06329087688823
 20
2.71970765720124
 30
0.0
 40
1.8
  1
1
 41
0.9
  7
CONVERTER_11
100
AcDbText
  0
TEXT
  5
28F
330
71
100
AcDbEntity
  8
1
 62
     2
100
AcDbText
 10
-52.85233471635974
 20
2.67045900339934
 30
0.0
 40
1.8
  1
1
 41
0.9
  7
CONVERTER_11
100
AcDbText
  0
TEXT
  5
290
330
71
100
AcDbEntity
  8
1
 62
     2
100
AcDbText
 10
-61.49859968670174
 20
2.71069044220968
 30
0.0
 40
1.8
  1
page
 41
0.9
  7
CONVERTER_11
100
AcDbText
  0
TEXT
  5
291
330
71
100
AcDbEntity
  8
1
 62
     2
100
AcDbText
 10
-43.29859968670192
 20
2.71069044220974
 30
0.0
 40
1.8
  1
of
 41
0.9
  7
CONVERTER_11
100
AcDbText
  0
MTEXT
  5
292
330
71
100
AcDbEntity
  8
1
 62
     3
100
AcDbMText
 10
-37.09561753509183
 20
188.2610158125002
 30
0.0
 40
1.8
 41
0.0
 71
     7
 72
     1
  3
Transfer or duplication of this document as well as the utilisation or\Pcommunication of its content are not permitted unless express consent\Pis granted. Violations give rise to claims for damages. All rights reserved\Pin case of patent, utility mo
  1
del or design patent registrations.
  7
CONVERTER_11
 73
     1
 44
0.99639855942377
  0
MTEXT
  5
293
330
71
100
AcDbEntity
  8
1
 62
     3
100
AcDbMText
 10
-219.9487273738799
 20
188.2610158125002
 30
0.0
 40
1.8
 41
0.0
 71
     7
 72
     1
  3
Weitergabe sowie Vervielf\U+00e4ltigung dieses Dokuments, Verwertung und \PMitteilung seines Inhalts sind verboten, soweit nicht ausdr\U+00fccklich gestattet. \PZuwiderhandlungen verpflichten zu Schadenersatz. Alle Rechte f\U+00fcr den Fall\Pder Pat
  1
ent-, Gebrauchsmuster- oder Designeintragung vorbehalten.
  7
CONVERTER_11
 73
     1
 44
0.99639855942377
  0
HATCH
  5
294
330
71
100
AcDbEntity
  8
1
  6
Continuous
 62
     2
100
AcDbHatch
 10
0.0
 20
0.0
 30
0.0
210
0.0
220
0.0
230
1.0
  2
_USER
 70
     0
 71
     1
 91
        1
 92
        1
 93
       14
 72
     2
 10
-50.25737041077903
 20
10.29011241912295
 40
1.205656168390951
 50
164.9381082228766
 51
195.0618917770948
 73
     1
 72
     2
 10
-49.83824256731623
 20
10.40290278115776
 40
1.639695123939394
 50
195.0618917770894
 51
275.1581447696395
 73
     1
 72
     2
 10
-50.12709866205213
 20
13.60279336437935
 40
4.852596863498136
 50
275.1581447696248
 51
285.9799912583529
 73
     1
 72
     1
 10
-48.79117074493433
 20
8.937711058578543
 11
-48.79117074493433
 21
9.81022806538175
 72
     2
 10
-49.96922578695921
 20
11.70057878453164
 40
2.227384008972731
 50
58.06909105004065
 51
71.55192388186738
 73
     0
 72
     2
 10
-49.55105805329842
 20
10.44703300849446
 40
0.9059297849849237
 50
71.55192388184157
 51
113.3722778881293
 73
     0
 72
     2
 10
-49.70749808600044
 20
10.08504098978446
 40
0.5115800601948034
 50
113.3722778881733
 51
151.4785267423044
 73
     0
 72
     2
 10
-49.33014082792013
 20
10.29011241912295
 40
0.9410597353332545
 50
151.4785267422942
 51
208.5214732577331
 73
     0
 72
     2
 10
-49.70749808600044
 20
10.49518384846195
 40
0.5115800601948823
 50
208.5214732576956
 51
246.6277221118002
 73
     0
 72
     2
 10
-49.55105805329842
 20
10.13319182975135
 40
0.9059297849853312
 50
246.6277221118708
 51
288.4480761181463
 73
     0
 72
     2
 10
-49.96922578695921
 20
8.879646053714765
 40
2.227384008973479
 50
288.4480761181326
 51
301.9309089499592
 73
     0
 72
     1
 10
-48.79117074493433
 20
10.76999677286466
 11
-48.79117074493433
 21
11.64251377966795
 72
     2
 10
-50.12709866205213
 20
6.977431473867057
 40
4.852596863498068
 50
74.02000874164739
 51
84.84185523037515
 73
     1
 72
     2
 10
-49.83824256731623
 20
10.17732205708805
 40
1.639695123940505
 50
84.84185523036236
 51
164.9381082228866
 73
     1
 97
       14
330
269
330
182
330
238
330
268
330
239
330
23A
330
267
330
266
330
265
330
183
330
23B
330
23C
330
23D
330
23E
 75
     1
 76
     0
 52
45.0
 41
0.1
 77
     0
 78
     1
 53
45.0
 43
0.0
 44
0.0
 45
-0.0707106781186548
 46
0.0707106781186548
 79
     0
 98
        1
 10
0.0
 20
0.0
  0
HATCH
  5
295
330
71
100
AcDbEntity
  8
1
  6
Continuous
 62
     2
100
AcDbHatch
 10
0.0
 20
0.0
 30
0.0
210
0.0
220
0.0
230
1.0
  2
_USER
 70
     0
 71
     1
 91
        1
 92
        1
 93
       14
 72
     2
 10
-50.25737041077903
 20
10.29011241912295
 40
1.205656168390951
 50
164.9381082228766
 51
195.0618917770948
 73
     1
 72
     2
 10
-49.83824256731623
 20
10.40290278115776
 40
1.639695123939394
 50
195.0618917770894
 51
275.1581447696395
 73
     1
 72
     2
 10
-50.12709866205213
 20
13.60279336437935
 40
4.852596863498136
 50
275.1581447696248
 51
285.9799912583529
 73
     1
 72
     1
 10
-48.79117074493433
 20
8.937711058578543
 11
-48.79117074493433
 21
9.81022806538175
 72
     2
 10
-49.96922578695921
 20
11.70057878453164
 40
2.227384008972731
 50
58.06909105004065
 51
71.55192388186738
 73
     0
 72
     2
 10
-49.55105805329842
 20
10.44703300849446
 40
0.9059297849849237
 50
71.55192388184157
 51
113.3722778881293
 73
     0
 72
     2
 10
-49.70749808600044
 20
10.08504098978446
 40
0.5115800601948034
 50
113.3722778881733
 51
151.4785267423044
 73
     0
 72
     2
 10
-49.33014082792013
 20
10.29011241912295
 40
0.9410597353332545
 50
151.4785267422942
 51
208.5214732577331
 73
     0
 72
     2
 10
-49.70749808600044
 20
10.49518384846195
 40
0.5115800601948823
 50
208.5214732576956
 51
246.6277221118002
 73
     0
 72
     2
 10
-49.55105805329842
 20
10.13319182975135
 40
0.9059297849853312
 50
246.6277221118708
 51
288.4480761181463
 73
     0
 72
     2
 10
-49.96922578695921
 20
8.879646053714765
 40
2.227384008973479
 50
288.4480761181326
 51
301.9309089499592
 73
     0
 72
     1
 10
-48.79117074493433
 20
10.76999677286466
 11
-48.79117074493433
 21
11.64251377966795
 72
     2
 10
-50.12709866205213
 20
6.977431473867057
 40
4.852596863498068
 50
74.02000874164739
 51
84.84185523037515
 73
     1
 72
     2
 10
-49.83824256731623
 20
10.17732205708805
 40
1.639695123940505
 50
84.84185523036236
 51
164.9381082228866
 73
     1
 97
       14
330
269
330
182
330
238
330
268
330
239
330
23A
330
267
330
266
330
265
330
183
330
23B
330
23C
330
23D
330
23E
 75
     1
 76
     0
 52
45.0
 41
0.1
 77
     0
 78
     1
 53
45.0
 43
0.0
 44
0.0
 45
-0.0707106781186548
 46
0.0707106781186548
 79
     0
 98
        1
 10
0.0
 20
0.0
  0
HATCH
  5
296
330
71
100
AcDbEntity
  8
1
  6
Continuous
 62
     2
100
AcDbHatch
 10
0.0
 20
0.0
 30
0.0
210
0.0
220
0.0
230
1.0
  2
_USER
 70
     0
 71
     1
 91
        1
 92
        1
 93
       18
 72
     2
 10
-33.73554108806331
 20
10.17732205708805
 40
1.639695123940211
 50
90.0
 51
164.9381082228951
 73
     1
 72
     2
 10
-34.15466893152492
 20
10.29011241912295
 40
1.205656168393009
 50
164.938108222903
 51
195.0618917770959
 73
     1
 72
     2
 10
-33.73554108806331
 20
10.40290278115776
 40
1.639695123940454
 50
195.061891777101
 51
275.158144769676
 73
     1
 72
     2
 10
-34.02439718279913
 20
13.60279336437935
 40
4.852596863498822
 50
275.1581447696362
 51
285.9799912583387
 73
     1
 72
     1
 10
-32.68846926568241
 20
8.937711058577946
 11
-32.68846926568241
 21
9.810228065381267
 72
     2
 10
-33.86652430770633
 20
11.70057878453105
 40
2.227384008972747
 50
58.06909105006019
 51
71.55192388186671
 73
     0
 72
     2
 10
-33.44835657404443
 20
10.44703300849446
 40
0.9059297849852789
 50
71.55192388191831
 51
113.3722778881813
 73
     0
 72
     2
 10
-33.60479660674753
 20
10.08504098978446
 40
0.5115800601960153
 50
113.3722778881551
 51
151.478526742313
 73
     0
 72
     2
 10
-33.22743934866614
 20
10.29011241912295
 40
0.9410597353348844
 50
151.4785267423302
 51
208.5214732576376
 73
     0
 72
     2
 10
-33.60479660674753
 20
10.49518384846195
 40
0.5115800601944093
 50
208.5214732575776
 51
250.6628567805145
 73
     0
 72
     2
 10
-33.45812660864382
 20
10.07722886807906
 40
0.9545230068260917
 50
250.6628567805679
 51
270.0
 73
     0
 72
     1
 10
-33.45812660864382
 20
11.03175187490515
 11
-32.35448730907572
 21
11.03175187490515
 72
     1
 10
-32.35448730907572
 20
11.03175187490515
 11
-32.35448730907572
 21
8.763207657217663
 72
     1
 10
-32.35448730907572
 20
8.763207657217663
 11
-31.16169460690801
 21
8.763207657217663
 72
     1
 10
-31.16169460690801
 20
8.763207657217663
 11
-31.16169460690801
 21
11.03175187490515
 72
     1
 10
-31.16169460690801
 20
11.03175187490515
 11
-30.35059556943463
 21
11.03175187490515
 72
     1
 10
-30.35059556943463
 20
11.03175187490515
 11
-30.35059556943463
 21
11.81701718102875
 72
     1
 10
-30.35059556943463
 20
11.81701718102875
 11
-33.73554108806331
 21
11.81701718102826
 97
       18
330
1E8
330
1E7
330
1E6
330
1E5
330
1EA
330
184
330
262
330
243
330
261
330
244
330
260
330
25F
330
185
330
25E
330
25D
330
245
330
246
330
1E9
 75
     1
 76
     0
 52
45.0
 41
0.1
 77
     0
 78
     1
 53
45.0
 43
0.0
 44
0.0
 45
-0.0707106781186548
 46
0.0707106781186548
 79
     0
 98
        1
 10
0.0
 20
0.0
  0
HATCH
  5
297
330
71
100
AcDbEntity
  8
1
  6
Continuous
 62
     2
100
AcDbHatch
 10
0.0
 20
0.0
 30
0.0
210
0.0
220
0.0
230
1.0
  2
_USER
 70
     0
 71
     1
 91
        1
 92
        1
 93
       18
 72
     2
 10
-33.73554108806331
 20
10.17732205708805
 40
1.639695123940211
 50
90.0
 51
164.9381082228951
 73
     1
 72
     2
 10
-34.15466893152492
 20
10.29011241912295
 40
1.205656168393009
 50
164.938108222903
 51
195.0618917770959
 73
     1
 72
     2
 10
-33.73554108806331
 20
10.40290278115776
 40
1.639695123940454
 50
195.061891777101
 51
275.158144769676
 73
     1
 72
     2
 10
-34.02439718279913
 20
13.60279336437935
 40
4.852596863498822
 50
275.1581447696362
 51
285.9799912583387
 73
     1
 72
     1
 10
-32.68846926568241
 20
8.937711058577946
 11
-32.68846926568241
 21
9.810228065381267
 72
     2
 10
-33.86652430770633
 20
11.70057878453105
 40
2.227384008972747
 50
58.06909105006019
 51
71.55192388186671
 73
     0
 72
     2
 10
-33.44835657404443
 20
10.44703300849446
 40
0.9059297849852789
 50
71.55192388191831
 51
113.3722778881813
 73
     0
 72
     2
 10
-33.60479660674753
 20
10.08504098978446
 40
0.5115800601960153
 50
113.3722778881551
 51
151.478526742313
 73
     0
 72
     2
 10
-33.22743934866614
 20
10.29011241912295
 40
0.9410597353348844
 50
151.4785267423302
 51
208.5214732576376
 73
     0
 72
     2
 10
-33.60479660674753
 20
10.49518384846195
 40
0.5115800601944093
 50
208.5214732575776
 51
250.6628567805145
 73
     0
 72
     2
 10
-33.45812660864382
 20
10.07722886807906
 40
0.9545230068260917
 50
250.6628567805679
 51
270.0
 73
     0
 72
     1
 10
-33.45812660864382
 20
11.03175187490515
 11
-32.35448730907572
 21
11.03175187490515
 72
     1
 10
-32.35448730907572
 20
11.03175187490515
 11
-32.35448730907572
 21
8.763207657217663
 72
     1
 10
-32.35448730907572
 20
8.763207657217663
 11
-31.16169460690801
 21
8.763207657217663
 72
     1
 10
-31.16169460690801
 20
8.763207657217663
 11
-31.16169460690801
 21
11.03175187490515
 72
     1
 10
-31.16169460690801
 20
11.03175187490515
 11
-30.35059556943463
 21
11.03175187490515
 72
     1
 10
-30.35059556943463
 20
11.03175187490515
 11
-30.35059556943463
 21
11.81701718102875
 72
     1
 10
-30.35059556943463
 20
11.81701718102875
 11
-33.73554108806331
 21
11.81701718102826
 97
       18
330
1E8
330
1E7
330
1E6
330
1E5
330
1EA
330
184
330
262
330
243
330
261
330
244
330
260
330
25F
330
185
330
25E
330
25D
330
245
330
246
330
1E9
 75
     1
 76
     0
 52
45.0
 41
0.1
 77
     0
 78
     1
 53
45.0
 43
0.0
 44
0.0
 45
-0.0707106781186548
 46
0.0707106781186548
 79
     0
 98
        1
 10
0.0
 20
0.0
  0
HATCH
  5
298
330
71
100
AcDbEntity
  8
1
  6
Continuous
 62
     2
100
AcDbHatch
 10
0.0
 20
0.0
 30
0.0
210
0.0
220
0.0
230
1.0
  2
_USER
 70
     0
 71
     1
 91
        4
 92
        1
 93
        8
 72
     2
 10
-57.83770018475633
 20
14.75196304180116
 40
0.4242446153838006
 50
90.0
 51
180.0
 73
     1
 72
     1
 10
-58.26194480013913
 20
14.75196304180116
 11
-58.26194480013913
 21
9.18745227260095
 72
     2
 10
-57.83770018475633
 20
9.18745227260095
 40
0.4242446153828041
 50
180.0
 51
270.0
 73
     1
 72
     1
 10
-57.83770018475633
 20
8.763207657217663
 11
-52.36438809403953
 21
8.763207657217663
 72
     2
 10
-52.36438809403953
 20
9.18745227260095
 40
0.4242446153832873
 50
270.0
 51
360.0
 73
     1
 72
     1
 10
-51.94014347865564
 20
9.18745227260095
 11
-51.94014347865564
 21
14.75196304180116
 72
     2
 10
-52.36438809403953
 20
14.75196304180116
 40
0.4242446153838912
 50
0.0
 51
90.0
 73
     1
 72
     1
 10
-52.36438809403953
 20
15.17620765718496
 11
-57.83770018475633
 21
15.17620765718496
 97
        8
330
256
330
1B3
330
255
330
1B4
330
24C
330
1B1
330
257
330
1B2
 92
       16
 93
        1
 72
     2
 10
-55.21811453423882
 20
12.43308081344566
 40
0.4709789327785003
 50
0.0
 51
360.0
 73
     1
 97
        1
330
26A
 92
       16
 93
        8
 72
     2
 10
-55.19429951956602
 20
12.43308081344566
 40
0.9118481501444714
 50
295.3740086781771
 51
424.6259913218065
 73
     1
 72
     2
 10
-54.66825682147814
 20
13.54222241341347
 40
0.315716923076792
 50
115.3740086783506
 51
180.0
 73
     0
 72
     1
 10
-54.98397374455493
 20
13.54222241341347
 11
-54.98397374455493
 21
14.14775770192026
 72
     2
 10
-54.66825682147814
 20
14.14775770192026
 40
0.315716923076064
 50
180.0
 51
269.8110329574541
 73
     0
 72
     2
 10
-54.66264068616812
 20
12.44492275435115
 40
2.018561131933257
 50
269.8110329575858
 51
450.1889670424142
 73
     0
 72
     2
 10
-54.66825682147814
 20
10.74208780678217
 40
0.315716923076792
 50
90.18896704254585
 51
180.0
 73
     0
 72
     1
 10
-54.98397374455493
 20
10.74208780678217
 11
-54.98397374455493
 21
11.32393921347725
 72
     2
 10
-54.66825682147814
 20
11.32393921347725
 40
0.3157169230765233
 50
180.0
 51
244.6259913216488
 73
     0
 97
        8
330
264
330
240
330
1EC
330
263
330
241
330
242
330
1EB
330
23F
 92
       16
 93
       12
 72
     1
 10
-57.24380550800984
 20
9.475763212774552
 11
-55.76797224700022
 21
9.475763212774552
 72
     2
 10
-55.76797224700022
 20
9.791480135851259
 40
0.3157169230767067
 50
270.0
 51
360.0
 73
     1
 72
     1
 10
-55.45225532392362
 20
9.791480135851259
 11
-55.45225532392362
 21
11.32225106738287
 72
     2
 10
-55.76797224700022
 20
11.32225106738287
 40
0.3157169230766002
 50
0.0
 51
64.8055893514591
 73
     1
 72
     2
 10
-55.24538779942523
 20
12.43308081344566
 40
0.9118975235576114
 50
115.1944106485123
 51
244.8055893514717
 73
     0
 72
     2
 10
-55.76797224700022
 20
13.54391055950785
 40
0.3157169230761233
 50
295.1944106485409
 51
360.0
 73
     1
 72
     1
 10
-55.45225532392362
 20
13.54391055950785
 11
-55.45225532392362
 21
14.14793517856836
 72
     2
 10
-55.76797224700022
 20
14.14793517856836
 40
0.3157169230766002
 50
0.0
 51
90.0
 73
     1
 72
     1
 10
-55.76797224700022
 20
14.46365210164456
 11
-57.24380550800984
 21
14.46365210164456
 72
     2
 10
-57.24380550800984
 20
14.14793517856836
 40
0.3157169230761987
 50
90.0
 51
180.0
 73
     1
 72
     1
 10
-57.55952243108553
 20
14.14793517856836
 11
-57.55952243108553
 21
9.791480135851259
 72
     2
 10
-57.24380550800984
 20
9.791480135851259
 40
0.3157169230756907
 50
180.0
 51
270.0
 73
     1
 97
       12
330
1B8
330
249
330
1B7
330
25A
330
1B6
330
259
330
24A
330
24B
330
1B5
330
258
330
1B0
330
25B
 75
     1
 76
     0
 52
45.0
 41
0.1
 77
     0
 78
     1
 53
45.0
 43
0.0
 44
0.0
 45
-0.0707106781186548
 46
0.0707106781186548
 79
     0
 98
        1
 10
0.0
 20
0.0
  0
HATCH
  5
299
330
71
100
AcDbEntity
  8
1
  6
Continuous
 62
     2
100
AcDbHatch
 10
0.0
 20
0.0
 30
0.0
210
0.0
220
0.0
230
1.0
  2
_USER
 70
     0
 71
     1
 91
        4
 92
        1
 93
        8
 72
     2
 10
-57.83770018475633
 20
14.75196304180116
 40
0.4242446153838006
 50
90.0
 51
180.0
 73
     1
 72
     1
 10
-58.26194480013913
 20
14.75196304180116
 11
-58.26194480013913
 21
9.18745227260095
 72
     2
 10
-57.83770018475633
 20
9.18745227260095
 40
0.4242446153828041
 50
180.0
 51
270.0
 73
     1
 72
     1
 10
-57.83770018475633
 20
8.763207657217663
 11
-52.36438809403953
 21
8.763207657217663
 72
     2
 10
-52.36438809403953
 20
9.18745227260095
 40
0.4242446153832873
 50
270.0
 51
360.0
 73
     1
 72
     1
 10
-51.94014347865564
 20
9.18745227260095
 11
-51.94014347865564
 21
14.75196304180116
 72
     2
 10
-52.36438809403953
 20
14.75196304180116
 40
0.4242446153838912
 50
0.0
 51
90.0
 73
     1
 72
     1
 10
-52.36438809403953
 20
15.17620765718496
 11
-57.83770018475633
 21
15.17620765718496
 97
        8
330
256
330
1B3
330
255
330
1B4
330
24C
330
1B1
330
257
330
1B2
 92
       16
 93
        1
 72
     2
 10
-55.21811453423882
 20
12.43308081344566
 40
0.4709789327785003
 50
0.0
 51
360.0
 73
     1
 97
        1
330
26A
 92
       16
 93
        8
 72
     2
 10
-55.19429951956602
 20
12.43308081344566
 40
0.9118481501444714
 50
295.3740086781771
 51
424.6259913218065
 73
     1
 72
     2
 10
-54.66825682147814
 20
13.54222241341347
 40
0.315716923076792
 50
115.3740086783506
 51
180.0
 73
     0
 72
     1
 10
-54.98397374455493
 20
13.54222241341347
 11
-54.98397374455493
 21
14.14775770192026
 72
     2
 10
-54.66825682147814
 20
14.14775770192026
 40
0.315716923076064
 50
180.0
 51
269.8110329574541
 73
     0
 72
     2
 10
-54.66264068616812
 20
12.44492275435115
 40
2.018561131933257
 50
269.8110329575858
 51
450.1889670424142
 73
     0
 72
     2
 10
-54.66825682147814
 20
10.74208780678217
 40
0.315716923076792
 50
90.18896704254585
 51
180.0
 73
     0
 72
     1
 10
-54.98397374455493
 20
10.74208780678217
 11
-54.98397374455493
 21
11.32393921347725
 72
     2
 10
-54.66825682147814
 20
11.32393921347725
 40
0.3157169230765233
 50
180.0
 51
244.6259913216488
 73
     0
 97
        8
330
264
330
240
330
1EC
330
263
330
241
330
242
330
1EB
330
23F
 92
       16
 93
       12
 72
     1
 10
-57.24380550800984
 20
9.475763212774552
 11
-55.76797224700022
 21
9.475763212774552
 72
     2
 10
-55.76797224700022
 20
9.791480135851259
 40
0.3157169230767067
 50
270.0
 51
360.0
 73
     1
 72
     1
 10
-55.45225532392362
 20
9.791480135851259
 11
-55.45225532392362
 21
11.32225106738287
 72
     2
 10
-55.76797224700022
 20
11.32225106738287
 40
0.3157169230766002
 50
0.0
 51
64.8055893514591
 73
     1
 72
     2
 10
-55.24538779942523
 20
12.43308081344566
 40
0.9118975235576114
 50
115.1944106485123
 51
244.8055893514717
 73
     0
 72
     2
 10
-55.76797224700022
 20
13.54391055950785
 40
0.3157169230761233
 50
295.1944106485409
 51
360.0
 73
     1
 72
     1
 10
-55.45225532392362
 20
13.54391055950785
 11
-55.45225532392362
 21
14.14793517856836
 72
     2
 10
-55.76797224700022
 20
14.14793517856836
 40
0.3157169230766002
 50
0.0
 51
90.0
 73
     1
 72
     1
 10
-55.76797224700022
 20
14.46365210164456
 11
-57.24380550800984
 21
14.46365210164456
 72
     2
 10
-57.24380550800984
 20
14.14793517856836
 40
0.3157169230761987
 50
90.0
 51
180.0
 73
     1
 72
     1
 10
-57.55952243108553
 20
14.14793517856836
 11
-57.55952243108553
 21
9.791480135851259
 72
     2
 10
-57.24380550800984
 20
9.791480135851259
 40
0.3157169230756907
 50
180.0
 51
270.0
 73
     1
 97
       12
330
1B8
330
249
330
1B7
330
25A
330
1B6
330
259
330
24A
330
24B
330
1B5
330
258
330
1B0
330
25B
 75
     1
 76
     0
 52
45.0
 41
0.1
 77
     0
 78
     1
 53
45.0
 43
0.0
 44
0.0
 45
-0.0707106781186548
 46
0.0707106781186548
 79
     0
 98
        1
 10
0.0
 20
0.0
  0
HATCH
  5
29A
330
71
100
AcDbEntity
  8
1
  6
Continuous
 62
     2
100
AcDbHatch
 10
0.0
 20
0.0
 30
0.0
210
0.0
220
0.0
230
1.0
  2
_USER
 70
     0
 71
     1
 91
        2
 92
        1
 93
       12
 72
     2
 10
-43.16253618076703
 20
13.64930289529727
 40
1.526904761905881
 50
90.0
 51
270.0
 73
     1
 72
     1
 10
-43.16253618076703
 20
12.12239813339195
 11
-40.01221645698604
 21
12.12239813339195
 72
     1
 10
-40.01221645698604
 20
12.12239813339195
 11
-40.01221645698604
 21
12.82041173883445
 72
     1
 10
-40.01221645698604
 20
12.82041173883445
 11
-41.34814428341372
 21
12.82041173883445
 72
     1
 10
-41.34814428341372
 20
12.82041173883445
 11
-41.34814428341372
 21
13.30029609257616
 72
     1
 10
-41.34814428341372
 20
13.30029609257616
 11
-40.01221645698604
 21
13.30029609257616
 72
     1
 10
-40.01221645698604
 20
13.30029609257616
 11
-40.01221645698604
 21
13.99830969801846
 72
     1
 10
-40.01221645698604
 20
13.99830969801846
 11
-41.34814428341372
 21
13.99830969801846
 72
     1
 10
-41.34814428341372
 20
13.99830969801846
 11
-41.34814428341372
 21
14.47819405176017
 72
     1
 10
-41.34814428341372
 20
14.47819405176017
 11
-40.01221645698604
 21
14.47819405176017
 72
     1
 10
-40.01221645698604
 20
14.47819405176017
 11
-40.01221645698604
 21
15.17620765720315
 72
     1
 10
-40.01221645698604
 20
15.17620765720315
 11
-43.16253618076703
 21
15.17620765720315
 97
       12
330
1A7
330
1A1
330
1C8
330
1C7
330
1C6
330
1C5
330
1A2
330
1A3
330
1A4
330
1A5
330
247
330
1A6
 92
       16
 93
        4
 72
     2
 10
-42.74652413425554
 20
13.64930289529727
 40
0.7717997786796724
 50
141.8795802028404
 51
218.120419797156
 73
     1
 72
     2
 10
-42.94626417060184
 20
13.49257171717684
 40
0.5179085730134261
 50
218.1204197971508
 51
321.8795802028579
 73
     1
 72
     2
 10
-43.14600420694802
 20
13.64930289529727
 40
0.7717997786796351
 50
321.879580202844
 51
398.1204197971596
 73
     1
 72
     2
 10
-42.94626417060184
 20
13.80603407341775
 40
0.5179085730135321
 50
38.12041979714286
 51
141.8795802028484
 73
     1
 97
        4
330
254
330
253
330
24E
330
24D
 75
     1
 76
     0
 52
45.0
 41
0.1
 77
     0
 78
     1
 53
45.0
 43
0.0
 44
0.0
 45
-0.0707106781186548
 46
0.0707106781186548
 79
     0
 98
        1
 10
0.0
 20
0.0
  0
HATCH
  5
29B
330
71
100
AcDbEntity
  8
1
  6
Continuous
 62
     2
100
AcDbHatch
 10
0.0
 20
0.0
 30
0.0
210
0.0
220
0.0
230
1.0
  2
_USER
 70
     0
 71
     1
 91
        2
 92
        1
 93
       12
 72
     2
 10
-43.16253618076703
 20
13.64930289529727
 40
1.526904761905881
 50
90.0
 51
270.0
 73
     1
 72
     1
 10
-43.16253618076703
 20
12.12239813339195
 11
-40.01221645698604
 21
12.12239813339195
 72
     1
 10
-40.01221645698604
 20
12.12239813339195
 11
-40.01221645698604
 21
12.82041173883445
 72
     1
 10
-40.01221645698604
 20
12.82041173883445
 11
-41.34814428341372
 21
12.82041173883445
 72
     1
 10
-41.34814428341372
 20
12.82041173883445
 11
-41.34814428341372
 21
13.30029609257616
 72
     1
 10
-41.34814428341372
 20
13.30029609257616
 11
-40.01221645698604
 21
13.30029609257616
 72
     1
 10
-40.01221645698604
 20
13.30029609257616
 11
-40.01221645698604
 21
13.99830969801846
 72
     1
 10
-40.01221645698604
 20
13.99830969801846
 11
-41.34814428341372
 21
13.99830969801846
 72
     1
 10
-41.34814428341372
 20
13.99830969801846
 11
-41.34814428341372
 21
14.47819405176017
 72
     1
 10
-41.34814428341372
 20
14.47819405176017
 11
-40.01221645698604
 21
14.47819405176017
 72
     1
 10
-40.01221645698604
 20
14.47819405176017
 11
-40.01221645698604
 21
15.17620765720315
 72
     1
 10
-40.01221645698604
 20
15.17620765720315
 11
-43.16253618076703
 21
15.17620765720315
 97
       12
330
1A7
330
1A1
330
1C8
330
1C7
330
1C6
330
1C5
330
1A2
330
1A3
330
1A4
330
1A5
330
247
330
1A6
 92
       16
 93
        4
 72
     2
 10
-42.74652413425554
 20
13.64930289529727
 40
0.7717997786796724
 50
141.8795802028404
 51
218.120419797156
 73
     1
 72
     2
 10
-42.94626417060184
 20
13.49257171717684
 40
0.5179085730134261
 50
218.1204197971508
 51
321.8795802028579
 73
     1
 72
     2
 10
-43.14600420694802
 20
13.64930289529727
 40
0.7717997786796351
 50
321.879580202844
 51
398.1204197971596
 73
     1
 72
     2
 10
-42.94626417060184
 20
13.80603407341775
 40
0.5179085730135321
 50
38.12041979714286
 51
141.8795802028484
 73
     1
 97
        4
330
254
330
253
330
24E
330
24D
 75
     1
 76
     0
 52
45.0
 41
0.1
 77
     0
 78
     1
 53
45.0
 43
0.0
 44
0.0
 45
-0.0707106781186548
 46
0.0707106781186548
 79
     0
 98
        1
 10
0.0
 20
0.0
  0
HATCH
  5
29C
330
71
100
AcDbEntity
  8
1
  6
Continuous
 62
     2
100
AcDbHatch
 10
0.0
 20
0.0
 30
0.0
210
0.0
220
0.0
230
1.0
  2
_USER
 70
     0
 71
     1
 91
        2
 92
        1
 93
        4
 72
     2
 10
-47.18815154322863
 20
10.29011241912295
 40
1.458034083651493
 50
117.5481481756627
 51
242.4518518243373
 73
     1
 72
     2
 10
-46.90721165139533
 20
10.82868742942625
 40
2.065479772208509
 50
242.45185182434
 51
297.5481481756871
 73
     1
 72
     2
 10
-46.62627175956203
 20
10.29011241912295
 40
1.458034083652004
 50
297.548148175701
 51
422.451851824299
 73
     1
 72
     2
 10
-46.90721165139533
 20
9.751537408820155
 40
2.065479772208569
 50
62.45185182430639
 51
117.5481481756665
 73
     1
 97
        4
330
252
330
24F
330
251
330
250
 92
       16
 93
        4
 72
     2
 10
-46.90721165139533
 20
10.44684359724346
 40
0.5179085730132965
 50
38.12041979714657
 51
141.8795802028592
 73
     1
 72
     2
 10
-46.70747161504923
 20
10.29011241912295
 40
0.7717997786794599
 50
141.8795802028366
 51
218.1204197971688
 73
     1
 72
     2
 10
-46.90721165139533
 20
10.13338124100295
 40
0.5179085730137343
 50
218.120419797193
 51
321.8795802028012
 73
     1
 72
     2
 10
-47.10695168774174
 20
10.29011241912295
 40
0.7717997786796958
 50
321.8795802028416
 51
398.120419797153
 73
     1
 97
        4
330
235
330
236
330
237
330
234
 75
     1
 76
     0
 52
45.0
 41
0.1
 77
     0
 78
     1
 53
45.0
 43
0.0
 44
0.0
 45
-0.0707106781186548
 46
0.0707106781186548
 79
     0
 98
        1
 10
0.0
 20
0.0
  0
HATCH
  5
29D
330
71
100
AcDbEntity
  8
1
  6
Continuous
 62
     2
100
AcDbHatch
 10
0.0
 20
0.0
 30
0.0
210
0.0
220
0.0
230
1.0
  2
_USER
 70
     0
 71
     1
 91
        2
 92
        1
 93
        4
 72
     2
 10
-47.18815154322863
 20
10.29011241912295
 40
1.458034083651493
 50
117.5481481756627
 51
242.4518518243373
 73
     1
 72
     2
 10
-46.90721165139533
 20
10.82868742942625
 40
2.065479772208509
 50
242.45185182434
 51
297.5481481756871
 73
     1
 72
     2
 10
-46.62627175956203
 20
10.29011241912295
 40
1.458034083652004
 50
297.548148175701
 51
422.451851824299
 73
     1
 72
     2
 10
-46.90721165139533
 20
9.751537408820155
 40
2.065479772208569
 50
62.45185182430639
 51
117.5481481756665
 73
     1
 97
        4
330
252
330
24F
330
251
330
250
 92
       16
 93
        4
 72
     2
 10
-46.90721165139533
 20
10.44684359724346
 40
0.5179085730132965
 50
38.12041979714657
 51
141.8795802028592
 73
     1
 72
     2
 10
-46.70747161504923
 20
10.29011241912295
 40
0.7717997786794599
 50
141.8795802028366
 51
218.1204197971688
 73
     1
 72
     2
 10
-46.90721165139533
 20
10.13338124100295
 40
0.5179085730137343
 50
218.120419797193
 51
321.8795802028012
 73
     1
 72
     2
 10
-47.10695168774174
 20
10.29011241912295
 40
0.7717997786796958
 50
321.8795802028416
 51
398.120419797153
 73
     1
 97
        4
330
235
330
236
330
237
330
234
 75
     1
 76
     0
 52
45.0
 41
0.1
 77
     0
 78
     1
 53
45.0
 43
0.0
 44
0.0
 45
-0.0707106781186548
 46
0.0707106781186548
 79
     0
 98
        1
 10
0.0
 20
0.0
  0
HATCH
  5
29E
330
71
100
AcDbEntity
  8
1
  6
Continuous
 62
     2
100
AcDbHatch
 10
0.0
 20
0.0
 30
0.0
210
0.0
220
0.0
230
1.0
  2
_USER
 70
     0
 71
     1
 91
        2
 92
        1
 93
        6
 72
     1
 10
-51.46302639778884
 20
15.17620765720315
 11
-51.46302639778884
 21
12.12239813339195
 72
     1
 10
-51.46302639778884
 20
12.12239813339195
 11
-50.22252198753472
 21
12.12239813339195
 72
     1
 10
-50.22252198753472
 20
12.12239813339195
 11
-50.22252198753472
 21
13.06547637453576
 72
     1
 10
-50.22252198753472
 20
13.06547637453576
 11
-49.46375439975444
 21
13.06547637453576
 72
     2
 10
-49.46375439975444
 20
14.12084201586947
 40
1.055365641333712
 50
270.0
 51
450.0
 73
     1
 72
     1
 10
-49.46375439975444
 20
15.17620765720315
 11
-51.46302639778884
 21
15.17620765720315
 97
        6
330
25C
330
1B9
330
1AF
330
1AE
330
1BB
330
1BA
 92
       16
 93
        4
 72
     1
 10
-49.90522692599282
 20
14.51310181176305
 11
-50.22252198753472
 21
14.51310181176305
 72
     1
 10
-50.22252198753472
 20
14.51310181176305
 11
-50.22252198753472
 21
13.80737416242084
 72
     1
 10
-50.22252198753472
 20
13.80737416242084
 11
-49.90522692599282
 21
13.80737416242084
 72
     2
 10
-49.90522692599282
 20
14.16023798709196
 40
0.35286382467112
 50
270.0
 51
450.0
 73
     1
 97
        4
330
1BC
330
1AD
330
1BD
330
248
 75
     1
 76
     0
 52
45.0
 41
0.1
 77
     0
 78
     1
 53
45.0
 43
0.0
 44
0.0
 45
-0.0707106781186548
 46
0.0707106781186548
 79
     0
 98
        1
 10
0.0
 20
0.0
  0
HATCH
  5
29F
330
71
100
AcDbEntity
  8
1
  6
Continuous
 62
     2
100
AcDbHatch
 10
0.0
 20
0.0
 30
0.0
210
0.0
220
0.0
230
1.0
  2
_USER
 70
     0
 71
     1
 91
        2
 92
        1
 93
        6
 72
     1
 10
-51.46302639778884
 20
15.17620765720315
 11
-51.46302639778884
 21
12.12239813339195
 72
     1
 10
-51.46302639778884
 20
12.12239813339195
 11
-50.22252198753472
 21
12.12239813339195
 72
     1
 10
-50.22252198753472
 20
12.12239813339195
 11
-50.22252198753472
 21
13.06547637453576
 72
     1
 10
-50.22252198753472
 20
13.06547637453576
 11
-49.46375439975444
 21
13.06547637453576
 72
     2
 10
-49.46375439975444
 20
14.12084201586947
 40
1.055365641333712
 50
270.0
 51
450.0
 73
     1
 72
     1
 10
-49.46375439975444
 20
15.17620765720315
 11
-51.46302639778884
 21
15.17620765720315
 97
        6
330
25C
330
1B9
330
1AF
330
1AE
330
1BB
330
1BA
 92
       16
 93
        4
 72
     1
 10
-49.90522692599282
 20
14.51310181176305
 11
-50.22252198753472
 21
14.51310181176305
 72
     1
 10
-50.22252198753472
 20
14.51310181176305
 11
-50.22252198753472
 21
13.80737416242084
 72
     1
 10
-50.22252198753472
 20
13.80737416242084
 11
-49.90522692599282
 21
13.80737416242084
 72
     2
 10
-49.90522692599282
 20
14.16023798709196
 40
0.35286382467112
 50
270.0
 51
450.0
 73
     1
 97
        4
330
1BC
330
1AD
330
1BD
330
248
 75
     1
 76
     0
 52
45.0
 41
0.1
 77
     0
 78
     1
 53
45.0
 43
0.0
 44
0.0
 45
-0.0707106781186548
 46
0.0707106781186548
 79
     0
 98
        1
 10
0.0
 20
0.0
  0
HATCH
  5
2A0
330
71
100
AcDbEntity
  8
1
  6
Continuous
 62
     2
100
AcDbHatch
 10
0.0
 20
0.0
 30
0.0
210
0.0
220
0.0
230
1.0
  2
_USER
 70
     0
 71
     1
 91
        1
 92
        1
 93
       12
 72
     1
 10
-31.84874320335564
 20
15.17620765720315
 11
-30.44601898560842
 21
15.17620765720315
 72
     1
 10
-30.44601898560842
 20
15.17620765720315
 11
-31.74854861637493
 21
13.70325712716695
 72
     1
 10
-31.74854861637493
 20
13.70325712716695
 11
-30.35059556943463
 21
12.12239813339195
 72
     1
 10
-30.35059556943463
 20
12.12239813339195
 11
-31.75331978718293
 21
12.12239813339195
 72
     1
 10
-31.75331978718293
 20
12.12239813339195
 11
-32.44991072524843
 21
12.91012991868567
 72
     1
 10
-32.44991072524843
 20
12.91012991868567
 11
-33.14650166331413
 21
12.12239813339195
 72
     1
 10
-33.14650166331413
 20
12.12239813339195
 11
-34.54922588106234
 21
12.12239813339195
 72
     1
 10
-34.54922588106234
 20
12.12239813339195
 11
-33.15127283412204
 21
13.70325712716695
 72
     1
 10
-33.15127283412204
 20
13.70325712716695
 11
-34.45380246488952
 21
15.17620765720315
 72
     1
 10
-34.45380246488952
 20
15.17620765720315
 11
-33.05107824714023
 21
15.17620765720315
 72
     1
 10
-33.05107824714023
 20
15.17620765720315
 11
-32.44991072524843
 21
14.49638433564766
 72
     1
 10
-32.44991072524843
 20
14.49638433564766
 11
-31.84874320335564
 21
15.17620765720315
 97
       12
330
188
330
1E1
330
1E0
330
1DF
330
1DE
330
189
330
18A
330
186
330
187
330
1E4
330
1E3
330
1E2
 75
     1
 76
     0
 52
45.0
 41
0.1
 77
     0
 78
     1
 53
45.0
 43
0.0
 44
0.0
 45
-0.0707106781186548
 46
0.0707106781186548
 79
     0
 98
        1
 10
0.0
 20
0.0
  0
HATCH
  5
2A1
330
71
100
AcDbEntity
  8
1
  6
Continuous
 62
     2
100
AcDbHatch
 10
0.0
 20
0.0
 30
0.0
210
0.0
220
0.0
230
1.0
  2
_USER
 70
     0
 71
     1
 91
        1
 92
        1
 93
       12
 72
     1
 10
-31.84874320335564
 20
15.17620765720315
 11
-30.44601898560842
 21
15.17620765720315
 72
     1
 10
-30.44601898560842
 20
15.17620765720315
 11
-31.74854861637493
 21
13.70325712716695
 72
     1
 10
-31.74854861637493
 20
13.70325712716695
 11
-30.35059556943463
 21
12.12239813339195
 72
     1
 10
-30.35059556943463
 20
12.12239813339195
 11
-31.75331978718293
 21
12.12239813339195
 72
     1
 10
-31.75331978718293
 20
12.12239813339195
 11
-32.44991072524843
 21
12.91012991868567
 72
     1
 10
-32.44991072524843
 20
12.91012991868567
 11
-33.14650166331413
 21
12.12239813339195
 72
     1
 10
-33.14650166331413
 20
12.12239813339195
 11
-34.54922588106234
 21
12.12239813339195
 72
     1
 10
-34.54922588106234
 20
12.12239813339195
 11
-33.15127283412204
 21
13.70325712716695
 72
     1
 10
-33.15127283412204
 20
13.70325712716695
 11
-34.45380246488952
 21
15.17620765720315
 72
     1
 10
-34.45380246488952
 20
15.17620765720315
 11
-33.05107824714023
 21
15.17620765720315
 72
     1
 10
-33.05107824714023
 20
15.17620765720315
 11
-32.44991072524843
 21
14.49638433564766
 72
     1
 10
-32.44991072524843
 20
14.49638433564766
 11
-31.84874320335564
 21
15.17620765720315
 97
       12
330
188
330
1E1
330
1E0
330
1DF
330
1DE
330
189
330
18A
330
186
330
187
330
1E4
330
1E3
330
1E2
 75
     1
 76
     0
 52
45.0
 41
0.1
 77
     0
 78
     1
 53
45.0
 43
0.0
 44
0.0
 45
-0.0707106781186548
 46
0.0707106781186548
 79
     0
 98
        1
 10
0.0
 20
0.0
  0
HATCH
  5
2A2
330
71
100
AcDbEntity
  8
1
  6
Continuous
 62
     2
100
AcDbHatch
 10
0.0
 20
0.0
 30
0.0
210
0.0
220
0.0
230
1.0
  2
_USER
 70
     0
 71
     1
 91
        1
 92
        1
 93
        4
 72
     1
 10
-34.66850515127922
 20
15.17620765720315
 11
-34.66850515127922
 21
12.12239813339195
 72
     1
 10
-34.66850515127922
 20
12.12239813339195
 11
-35.90900956153212
 21
12.12239813339195
 72
     1
 10
-35.90900956153212
 20
12.12239813339195
 11
-35.90900956153212
 21
15.17620765720315
 72
     1
 10
-35.90900956153212
 20
15.17620765720315
 11
-34.66850515127922
 21
15.17620765720315
 97
        4
330
1DC
330
18B
330
1DB
330
1DD
 75
     1
 76
     0
 52
45.0
 41
0.1
 77
     0
 78
     1
 53
45.0
 43
0.0
 44
0.0
 45
-0.0707106781186548
 46
0.0707106781186548
 79
     0
 98
        1
 10
0.0
 20
0.0
  0
HATCH
  5
2A3
330
71
100
AcDbEntity
  8
1
  6
Continuous
 62
     2
100
AcDbHatch
 10
0.0
 20
0.0
 30
0.0
210
0.0
220
0.0
230
1.0
  2
_USER
 70
     0
 71
     1
 91
        1
 92
        1
 93
        4
 72
     1
 10
-34.66850515127922
 20
15.17620765720315
 11
-34.66850515127922
 21
12.12239813339195
 72
     1
 10
-34.66850515127922
 20
12.12239813339195
 11
-35.90900956153212
 21
12.12239813339195
 72
     1
 10
-35.90900956153212
 20
12.12239813339195
 11
-35.90900956153212
 21
15.17620765720315
 72
     1
 10
-35.90900956153212
 20
15.17620765720315
 11
-34.66850515127922
 21
15.17620765720315
 97
        4
330
1DC
330
18B
330
1DB
330
1DD
 75
     1
 76
     0
 52
45.0
 41
0.1
 77
     0
 78
     1
 53
45.0
 43
0.0
 44
0.0
 45
-0.0707106781186548
 46
0.0707106781186548
 79
     0
 98
        1
 10
0.0
 20
0.0
  0
HATCH
  5
2A4
330
71
100
AcDbEntity
  8
1
  6
Continuous
 62
     2
100
AcDbHatch
 10
0.0
 20
0.0
 30
0.0
210
0.0
220
0.0
230
1.0
  2
_USER
 70
     0
 71
     1
 91
        2
 92
        1
 93
        8
 72
     1
 10
-35.05894915481122
 20
8.763207657217663
 11
-36.29945356506514
 21
8.763207657217663
 72
     1
 10
-36.29945356506514
 20
8.763207657217663
 11
-36.51093361854092
 21
9.304168201435544
 72
     1
 10
-36.51093361854092
 20
9.304168201435544
 11
-37.64337519521473
 21
9.304168201435544
 72
     1
 10
-37.64337519521473
 20
9.304168201435544
 11
-37.85485524869054
 21
8.763207657217663
 72
     1
 10
-37.85485524869054
 20
8.763207657217663
 11
-39.09535965894352
 21
8.763207657217663
 72
     1
 10
-39.09535965894352
 20
8.763207657217663
 11
-37.69740661200422
 21
11.81701718102875
 72
     1
 10
-37.69740661200422
 20
11.81701718102875
 11
-36.45690220175152
 21
11.81701718102875
 72
     1
 10
-36.45690220175152
 20
11.81701718102875
 11
-35.05894915481122
 21
8.763207657217663
 97
        8
330
1D7
330
191
330
1D6
330
1D9
330
18E
330
1D8
330
18F
330
190
 92
       16
 93
        3
 72
     1
 10
-37.37731964406973
 20
9.984731466742147
 11
-36.77698916968723
 21
9.984731466742147
 72
     1
 10
-36.77698916968723
 20
9.984731466742147
 11
-37.07715440687733
 21
10.75254643272885
 72
     1
 10
-37.07715440687733
 20
10.75254643272885
 11
-37.37731964406973
 21
9.984731466742147
 97
        3
330
18D
330
18C
330
1DA
 75
     1
 76
     0
 52
45.0
 41
0.1
 77
     0
 78
     1
 53
45.0
 43
0.0
 44
0.0
 45
-0.0707106781186548
 46
0.0707106781186548
 79
     0
 98
        1
 10
0.0
 20
0.0
  0
HATCH
  5
2A5
330
71
100
AcDbEntity
  8
1
  6
Continuous
 62
     2
100
AcDbHatch
 10
0.0
 20
0.0
 30
0.0
210
0.0
220
0.0
230
1.0
  2
_USER
 70
     0
 71
     1
 91
        2
 92
        1
 93
        8
 72
     1
 10
-35.05894915481122
 20
8.763207657217663
 11
-36.29945356506514
 21
8.763207657217663
 72
     1
 10
-36.29945356506514
 20
8.763207657217663
 11
-36.51093361854092
 21
9.304168201435544
 72
     1
 10
-36.51093361854092
 20
9.304168201435544
 11
-37.64337519521473
 21
9.304168201435544
 72
     1
 10
-37.64337519521473
 20
9.304168201435544
 11
-37.85485524869054
 21
8.763207657217663
 72
     1
 10
-37.85485524869054
 20
8.763207657217663
 11
-39.09535965894352
 21
8.763207657217663
 72
     1
 10
-39.09535965894352
 20
8.763207657217663
 11
-37.69740661200422
 21
11.81701718102875
 72
     1
 10
-37.69740661200422
 20
11.81701718102875
 11
-36.45690220175152
 21
11.81701718102875
 72
     1
 10
-36.45690220175152
 20
11.81701718102875
 11
-35.05894915481122
 21
8.763207657217663
 97
        8
330
1D7
330
191
330
1D6
330
1D9
330
18E
330
1D8
330
18F
330
190
 92
       16
 93
        3
 72
     1
 10
-37.37731964406973
 20
9.984731466742147
 11
-36.77698916968723
 21
9.984731466742147
 72
     1
 10
-36.77698916968723
 20
9.984731466742147
 11
-37.07715440687733
 21
10.75254643272885
 72
     1
 10
-37.07715440687733
 20
10.75254643272885
 11
-37.37731964406973
 21
9.984731466742147
 97
        3
330
18D
330
18C
330
1DA
 75
     1
 76
     0
 52
45.0
 41
0.1
 77
     0
 78
     1
 53
45.0
 43
0.0
 44
0.0
 45
-0.0707106781186548
 46
0.0707106781186548
 79
     0
 98
        1
 10
0.0
 20
0.0
  0
HATCH
  5
2A6
330
71
100
AcDbEntity
  8
1
  6
Continuous
 62
     2
100
AcDbHatch
 10
0.0
 20
0.0
 30
0.0
210
0.0
220
0.0
230
1.0
  2
_USER
 70
     0
 71
     1
 91
        1
 92
        1
 93
        8
 72
     1
 10
-41.25287179812574
 20
11.81701718102875
 11
-41.25287179812574
 21
11.03175187490515
 72
     1
 10
-41.25287179812574
 20
11.03175187490515
 11
-40.44177276065113
 21
11.03175187490515
 72
     1
 10
-40.44177276065113
 20
11.03175187490515
 11
-40.44177276065113
 21
8.763207657217663
 72
     1
 10
-40.44177276065113
 20
8.763207657217663
 11
-39.24898005848462
 21
8.763207657217663
 72
     1
 10
-39.24898005848462
 20
8.763207657217663
 11
-39.24898005848462
 21
11.03175187490515
 72
     1
 10
-39.24898005848462
 20
11.03175187490515
 11
-38.43788102101212
 21
11.03175187490515
 72
     1
 10
-38.43788102101212
 20
11.03175187490515
 11
-38.43788102101212
 21
11.81701718102875
 72
     1
 10
-38.43788102101212
 20
11.81701718102875
 11
-41.25287179812574
 21
11.81701718102875
 97
        8
330
1D3
330
1D2
330
1D1
330
192
330
193
330
1D5
330
194
330
1D4
 75
     1
 76
     0
 52
45.0
 41
0.1
 77
     0
 78
     1
 53
45.0
 43
0.0
 44
0.0
 45
-0.0707106781186548
 46
0.0707106781186548
 79
     0
 98
        1
 10
0.0
 20
0.0
  0
HATCH
  5
2A7
330
71
100
AcDbEntity
  8
1
  6
Continuous
 62
     2
100
AcDbHatch
 10
0.0
 20
0.0
 30
0.0
210
0.0
220
0.0
230
1.0
  2
_USER
 70
     0
 71
     1
 91
        1
 92
        1
 93
        8
 72
     1
 10
-41.25287179812574
 20
11.81701718102875
 11
-41.25287179812574
 21
11.03175187490515
 72
     1
 10
-41.25287179812574
 20
11.03175187490515
 11
-40.44177276065113
 21
11.03175187490515
 72
     1
 10
-40.44177276065113
 20
11.03175187490515
 11
-40.44177276065113
 21
8.763207657217663
 72
     1
 10
-40.44177276065113
 20
8.763207657217663
 11
-39.24898005848462
 21
8.763207657217663
 72
     1
 10
-39.24898005848462
 20
8.763207657217663
 11
-39.24898005848462
 21
11.03175187490515
 72
     1
 10
-39.24898005848462
 20
11.03175187490515
 11
-38.43788102101212
 21
11.03175187490515
 72
     1
 10
-38.43788102101212
 20
11.03175187490515
 11
-38.43788102101212
 21
11.81701718102875
 72
     1
 10
-38.43788102101212
 20
11.81701718102875
 11
-41.25287179812574
 21
11.81701718102875
 97
        8
330
1D3
330
1D2
330
1D1
330
192
330
193
330
1D5
330
194
330
1D4
 75
     1
 76
     0
 52
45.0
 41
0.1
 77
     0
 78
     1
 53
45.0
 43
0.0
 44
0.0
 45
-0.0707106781186548
 46
0.0707106781186548
 79
     0
 98
        1
 10
0.0
 20
0.0
  0
HATCH
  5
2A8
330
71
100
AcDbEntity
  8
1
  6
Continuous
 62
     2
100
AcDbHatch
 10
0.0
 20
0.0
 30
0.0
210
0.0
220
0.0
230
1.0
  2
_USER
 70
     0
 71
     1
 91
        1
 92
        1
 93
       10
 72
     1
 10
-38.58086521438662
 20
15.17620765720315
 11
-39.77365791655313
 21
15.17620765720315
 72
     1
 10
-39.77365791655313
 20
15.17620765720315
 11
-39.77365791655313
 21
12.12239813339195
 72
     1
 10
-39.77365791655313
 20
12.12239813339195
 11
-38.58086521438662
 21
12.12239813339195
 72
     1
 10
-38.58086521438662
 20
12.12239813339195
 11
-38.58086521438662
 21
13.43117364359665
 72
     1
 10
-38.58086521438662
 20
13.43117364359665
 11
-37.34036080413262
 21
12.12239813339195
 72
     1
 10
-37.34036080413262
 20
12.12239813339195
 11
-36.14756810196602
 21
12.12239813339195
 72
     1
 10
-36.14756810196602
 20
12.12239813339195
 11
-36.14756810196602
 21
15.17620765720315
 72
     1
 10
-36.14756810196602
 20
15.17620765720315
 11
-37.34036080413262
 21
15.17620765720315
 72
     1
 10
-37.34036080413262
 20
15.17620765720315
 11
-37.34036080413262
 21
13.86743214699797
 72
     1
 10
-37.34036080413262
 20
13.86743214699797
 11
-38.58086521438662
 21
15.17620765720315
 97
       10
330
1CD
330
197
330
198
330
199
330
19A
330
1D0
330
195
330
1CF
330
1CE
330
196
 75
     1
 76
     0
 52
45.0
 41
0.1
 77
     0
 78
     1
 53
45.0
 43
0.0
 44
0.0
 45
-0.0707106781186548
 46
0.0707106781186548
 79
     0
 98
        1
 10
0.0
 20
0.0
  0
HATCH
  5
2A9
330
71
100
AcDbEntity
  8
1
  6
Continuous
 62
     2
100
AcDbHatch
 10
0.0
 20
0.0
 30
0.0
210
0.0
220
0.0
230
1.0
  2
_USER
 70
     0
 71
     1
 91
        1
 92
        1
 93
       10
 72
     1
 10
-38.58086521438662
 20
15.17620765720315
 11
-39.77365791655313
 21
15.17620765720315
 72
     1
 10
-39.77365791655313
 20
15.17620765720315
 11
-39.77365791655313
 21
12.12239813339195
 72
     1
 10
-39.77365791655313
 20
12.12239813339195
 11
-38.58086521438662
 21
12.12239813339195
 72
     1
 10
-38.58086521438662
 20
12.12239813339195
 11
-38.58086521438662
 21
13.43117364359665
 72
     1
 10
-38.58086521438662
 20
13.43117364359665
 11
-37.34036080413262
 21
12.12239813339195
 72
     1
 10
-37.34036080413262
 20
12.12239813339195
 11
-36.14756810196602
 21
12.12239813339195
 72
     1
 10
-36.14756810196602
 20
12.12239813339195
 11
-36.14756810196602
 21
15.17620765720315
 72
     1
 10
-36.14756810196602
 20
15.17620765720315
 11
-37.34036080413262
 21
15.17620765720315
 72
     1
 10
-37.34036080413262
 20
15.17620765720315
 11
-37.34036080413262
 21
13.86743214699797
 72
     1
 10
-37.34036080413262
 20
13.86743214699797
 11
-38.58086521438662
 21
15.17620765720315
 97
       10
330
1CD
330
197
330
198
330
199
330
19A
330
1D0
330
195
330
1CF
330
1CE
330
196
 75
     1
 76
     0
 52
45.0
 41
0.1
 77
     0
 78
     1
 53
45.0
 43
0.0
 44
0.0
 45
-0.0707106781186548
 46
0.0707106781186548
 79
     0
 98
        1
 10
0.0
 20
0.0
  0
HATCH
  5
2AA
330
71
100
AcDbEntity
  8
1
  6
Continuous
 62
     2
100
AcDbHatch
 10
0.0
 20
0.0
 30
0.0
210
0.0
220
0.0
230
1.0
  2
_USER
 70
     0
 71
     1
 91
        1
 92
        1
 93
       10
 72
     1
 10
-43.82930403480523
 20
11.81701718102875
 11
-45.02209673697283
 21
11.81701718102875
 72
     1
 10
-45.02209673697283
 20
11.81701718102875
 11
-45.02209673697283
 21
8.763207657217663
 72
     1
 10
-45.02209673697283
 20
8.763207657217663
 11
-43.82930403480523
 21
8.763207657217663
 72
     1
 10
-43.82930403480523
 20
8.763207657217663
 11
-43.82930403480523
 21
10.07198316742225
 72
     1
 10
-43.82930403480523
 20
10.07198316742225
 11
-42.58879962455234
 21
8.763207657217663
 72
     1
 10
-42.58879962455234
 20
8.763207657217663
 11
-41.39600692238594
 21
8.763207657217663
 72
     1
 10
-41.39600692238594
 20
8.763207657217663
 11
-41.39600692238594
 21
11.81701718102875
 72
     1
 10
-41.39600692238594
 20
11.81701718102875
 11
-42.58879962455234
 21
11.81701718102875
 72
     1
 10
-42.58879962455234
 20
11.81701718102875
 11
-42.58879962455234
 21
10.50824167082365
 72
     1
 10
-42.58879962455234
 20
10.50824167082365
 11
-43.82930403480523
 21
11.81701718102875
 97
       10
330
19C
330
19D
330
19E
330
1CA
330
19F
330
1A0
330
1C9
330
1CC
330
1CB
330
19B
 75
     1
 76
     0
 52
45.0
 41
0.1
 77
     0
 78
     1
 53
45.0
 43
0.0
 44
0.0
 45
-0.0707106781186548
 46
0.0707106781186548
 79
     0
 98
        1
 10
0.0
 20
0.0
  0
HATCH
  5
2AB
330
71
100
AcDbEntity
  8
1
  6
Continuous
 62
     2
100
AcDbHatch
 10
0.0
 20
0.0
 30
0.0
210
0.0
220
0.0
230
1.0
  2
_USER
 70
     0
 71
     1
 91
        1
 92
        1
 93
       10
 72
     1
 10
-43.82930403480523
 20
11.81701718102875
 11
-45.02209673697283
 21
11.81701718102875
 72
     1
 10
-45.02209673697283
 20
11.81701718102875
 11
-45.02209673697283
 21
8.763207657217663
 72
     1
 10
-45.02209673697283
 20
8.763207657217663
 11
-43.82930403480523
 21
8.763207657217663
 72
     1
 10
-43.82930403480523
 20
8.763207657217663
 11
-43.82930403480523
 21
10.07198316742225
 72
     1
 10
-43.82930403480523
 20
10.07198316742225
 11
-42.58879962455234
 21
8.763207657217663
 72
     1
 10
-42.58879962455234
 20
8.763207657217663
 11
-41.39600692238594
 21
8.763207657217663
 72
     1
 10
-41.39600692238594
 20
8.763207657217663
 11
-41.39600692238594
 21
11.81701718102875
 72
     1
 10
-41.39600692238594
 20
11.81701718102875
 11
-42.58879962455234
 21
11.81701718102875
 72
     1
 10
-42.58879962455234
 20
11.81701718102875
 11
-42.58879962455234
 21
10.50824167082365
 72
     1
 10
-42.58879962455234
 20
10.50824167082365
 11
-43.82930403480523
 21
11.81701718102875
 97
       10
330
19C
330
19D
330
19E
330
1CA
330
19F
330
1A0
330
1C9
330
1CC
330
1CB
330
19B
 75
     1
 76
     0
 52
45.0
 41
0.1
 77
     0
 78
     1
 53
45.0
 43
0.0
 44
0.0
 45
-0.0707106781186548
 46
0.0707106781186548
 79
     0
 98
        1
 10
0.0
 20
0.0
  0
HATCH
  5
2AC
330
71
100
AcDbEntity
  8
1
  6
Continuous
 62
     2
100
AcDbHatch
 10
0.0
 20
0.0
 30
0.0
210
0.0
220
0.0
230
1.0
  2
_USER
 70
     0
 71
     1
 91
        1
 92
        1
 93
       12
 72
     1
 10
-44.83109897374064
 20
15.17620765720315
 11
-44.83109897374064
 21
12.12239813339195
 72
     1
 10
-44.83109897374064
 20
12.12239813339195
 11
-46.02389167590704
 21
12.12239813339195
 72
     1
 10
-46.02389167590704
 20
12.12239813339195
 11
-46.02389167590704
 21
13.25667024223577
 72
     1
 10
-46.02389167590704
 20
13.25667024223577
 11
-47.07354925381452
 21
13.25667024223577
 72
     1
 10
-47.07354925381452
 20
13.25667024223577
 11
-47.07354925381452
 21
12.12239813339195
 72
     1
 10
-47.07354925381452
 20
12.12239813339195
 11
-48.26634195598112
 21
12.12239813339195
 72
     1
 10
-48.26634195598112
 20
12.12239813339195
 11
-48.26634195598112
 21
15.17620765720315
 72
     1
 10
-48.26634195598112
 20
15.17620765720315
 11
-47.07354925381452
 21
15.17620765720315
 72
     1
 10
-47.07354925381452
 20
15.17620765720315
 11
-47.07354925381452
 21
14.10737432386856
 72
     1
 10
-47.07354925381452
 20
14.10737432386856
 11
-46.02389167590704
 21
14.10737432386856
 72
     1
 10
-46.02389167590704
 20
14.10737432386856
 11
-46.02389167590704
 21
15.17620765720315
 72
     1
 10
-46.02389167590704
 20
15.17620765720315
 11
-44.83109897374064
 21
15.17620765720315
 97
       12
330
1C4
330
1C3
330
1C2
330
1AA
330
1AB
330
1C1
330
1AC
330
1C0
330
1BF
330
1BE
330
1A8
330
1A9
 75
     1
 76
     0
 52
45.0
 41
0.1
 77
     0
 78
     1
 53
45.0
 43
0.0
 44
0.0
 45
-0.0707106781186548
 46
0.0707106781186548
 79
     0
 98
        1
 10
0.0
 20
0.0
  0
HATCH
  5
2AD
330
71
100
AcDbEntity
  8
1
  6
Continuous
 62
     2
100
AcDbHatch
 10
0.0
 20
0.0
 30
0.0
210
0.0
220
0.0
230
1.0
  2
_USER
 70
     0
 71
     1
 91
        1
 92
        1
 93
       12
 72
     1
 10
-44.83109897374064
 20
15.17620765720315
 11
-44.83109897374064
 21
12.12239813339195
 72
     1
 10
-44.83109897374064
 20
12.12239813339195
 11
-46.02389167590704
 21
12.12239813339195
 72
     1
 10
-46.02389167590704
 20
12.12239813339195
 11
-46.02389167590704
 21
13.25667024223577
 72
     1
 10
-46.02389167590704
 20
13.25667024223577
 11
-47.07354925381452
 21
13.25667024223577
 72
     1
 10
-47.07354925381452
 20
13.25667024223577
 11
-47.07354925381452
 21
12.12239813339195
 72
     1
 10
-47.07354925381452
 20
12.12239813339195
 11
-48.26634195598112
 21
12.12239813339195
 72
     1
 10
-48.26634195598112
 20
12.12239813339195
 11
-48.26634195598112
 21
15.17620765720315
 72
     1
 10
-48.26634195598112
 20
15.17620765720315
 11
-47.07354925381452
 21
15.17620765720315
 72
     1
 10
-47.07354925381452
 20
15.17620765720315
 11
-47.07354925381452
 21
14.10737432386856
 72
     1
 10
-47.07354925381452
 20
14.10737432386856
 11
-46.02389167590704
 21
14.10737432386856
 72
     1
 10
-46.02389167590704
 20
14.10737432386856
 11
-46.02389167590704
 21
15.17620765720315
 72
     1
 10
-46.02389167590704
 20
15.17620765720315
 11
-44.83109897374064
 21
15.17620765720315
 97
       12
330
1C4
330
1C3
330
1C2
330
1AA
330
1AB
330
1C1
330
1AC
330
1C0
330
1BF
330
1BE
330
1A8
330
1A9
 75
     1
 76
     0
 52
45.0
 41
0.1
 77
     0
 78
     1
 53
45.0
 43
0.0
 44
0.0
 45
-0.0707106781186548
 46
0.0707106781186548
 79
     0
 98
        1
 10
0.0
 20
0.0
  0
ENDBLK
  5
73
330
71
100
AcDbEntity
  8
0
100
AcDbBlockEnd
  0
BLOCK
  5
75
330
74
100
AcDbEntity
  8
0
100
AcDbBlockBegin
  2
_punkt
 70
     0
 10
67.04620484004828
 20
1.46970765720135
 30
0.0
  3
_punkt
  1

  0
LINE
  5
2AE
330
74
100
AcDbEntity
  8
1
  6
Continuous
 62
     2
100
AcDbLine
 10
67.04620484004828
 20
1.46970765720135
 30
0.0
 11
67.04620484004828
 21
-3.53029234279876
 31
0.0
  0
LINE
  5
2AF
330
74
100
AcDbEntity
  8
1
  6
Continuous
 62
     2
100
AcDbLine
 10
67.04620484004828
 20
1.46970765720135
 30
0.0
 11
72.04620484004727
 21
1.46970765720135
 31
0.0
  0
ENDBLK
  5
76
330
74
100
AcDbEntity
  8
0
100
AcDbBlockEnd
  0
BLOCK
  5
7A
330
77
100
AcDbEntity
  8
0
100
AcDbBlockBegin
  2
A4I_CS
 70
     0
 10
67.04620484004828
 20
-3.53029234279876
 30
0.0
  3
A4I_CS
  1

  0
INSERT
  5
78
330
77
100
AcDbEntity
  8
1
100
AcDbBlockReference
  2
_rahmen
 10
67.04620484004828
 20
-3.53029234279876
 30
0.0
  0
INSERT
  5
79
330
77
100
AcDbEntity
  8
1
100
AcDbBlockReference
  2
_punkt
 10
67.04620484004828
 20
1.46970765720135
 30
0.0
  0
ENDBLK
  5
7B
330
77
100
AcDbEntity
  8
0
100
AcDbBlockEnd
  0
BLOCK
  5
84
330
7C
100
AcDbEntity
  8
0
100
AcDbBlockBegin
  2
1
 70
     0
 10
0.0
 20
0.0
 30
0.0
  3
1
  1

  0
INSERT
  5
7D
330
7C
100
AcDbEntity
  8
0
100
AcDbBlockReference
  2
Back1
 10
-3.95020771043618
 20
136.00000000017
 30
0.0
  0
INSERT
  5
7E
330
7C
100
AcDbEntity
  8
0
100
AcDbBlockReference
  2
Front1
 10
-106.6500692365854
 20
136.00000000017
 30
0.0
  0
INSERT
  5
7F
330
7C
100
AcDbEntity
  8
0
100
AcDbBlockReference
  2
Gen1
 10
2.00000000023995
 20
65.00000000018008
 30
0.0
  0
INSERT
  5
80
330
7C
100
AcDbEntity
  8
0
100
AcDbBlockReference
  2
Left1
 10
-51.300138473696
 20
136.00000000017
 30
0.0
  0
INSERT
  5
81
330
7C
100
AcDbEntity
  8
0
100
AcDbBlockReference
  2
Right1
 10
-173.99999999981
 20
136.0000000001701
 30
0.0
  0
INSERT
  5
82
330
7C
100
AcDbEntity
  8
0
100
AcDbBlockReference
  2
Top1
 10
-106.6500692365856
 20
62.15000009555763
 30
0.0
  0
INSERT
  5
83
330
7C
100
AcDbEntity
  8
0
100
AcDbBlockReference
  2
A4I_CS
 10
67.04620484004828
 20
-3.53029234279876
 30
0.0
  0
ENDBLK
  5
85
330
7C
100
AcDbEntity
  8
0
100
AcDbBlockEnd
  0
BLOCK
  5
CD
330
C5
100
AcDbEntity
  8
0
100
AcDbBlockBegin
  2
*D17
 70
     1
 10
0.0
 20
0.0
 30
0.0
  3
*D17
  1

  0
LINE
  5
C6
330
C5
100
AcDbEntity
  8
1
  6
Continuous
 62
     2
100
AcDbLine
 10
-133.5236250401004
 20
166.8500004961227
 30
0.0
 11
-133.5236250401004
 21
105.1500004961299
 31
0.0
  0
LINE
  5
C7
330
C5
100
AcDbEntity
  8
1
  6
Continuous
 62
     2
100
AcDbLine
 10
-116.6469723098067
 20
166.8500004961227
 30
0.0
 11
-135.0236250401004
 21
166.8500004961227
 31
0.0
  0
LINE
  5
C8
330
C5
100
AcDbEntity
  8
1
  6
Continuous
 62
     2
100
AcDbLine
 10
-119.7718563510484
 20
105.1500004961299
 30
0.0
 11
-135.0236250401004
 21
105.1500004961299
 31
0.0
  0
SOLID
  5
C9
330
C5
100
AcDbEntity
  8
1
 62
     2
100
AcDbTrace
 10
-133.0628412985445
 20
163.3500004961227
 30
0.0
 11
-133.9844087816563
 21
163.3500004961227
 31
0.0
 12
-133.5236250401004
 22
166.8500004961227
 32
0.0
 13
-133.5236250401004
 23
166.8500004961227
 33
0.0
  0
SOLID
  5
CA
330
C5
100
AcDbEntity
  8
1
 62
     2
100
AcDbTrace
 10
-133.9844087816563
 20
108.6500004961299
 30
0.0
 11
-133.0628412985445
 21
108.6500004961299
 31
0.0
 12
-133.5236250401004
 22
105.1500004961299
 32
0.0
 13
-133.5236250401004
 23
105.1500004961299
 33
0.0
  0
MTEXT
  5
CC
330
C5
100
AcDbEntity
  8
1
 62
     3
100
AcDbMText
 10
-135.3736250401004
 20
132.326658504438
 30
0.0
 40
3.5
 41
0.0
 71
     7
 72
     1
  1
61,7
  7
CONVERTER_11
 11
0.0
 21
1.0
 31
0.0
 73
     1
 44
0.60024009603842
  0
ENDBLK
  5
CE
330
C5
100
AcDbEntity
  8
0
100
AcDbBlockEnd
  0
BLOCK
  5
D8
330
D1
100
AcDbEntity
  8
0
100
AcDbBlockBegin
  2
*D18
 70
     1
 10
0.0
 20
0.0
 30
0.0
  3
*D18
  1

  0
LINE
  5
D2
330
D1
100
AcDbEntity
  8
1
  6
Continuous
 62
     2
100
AcDbLine
 10
-91.30013825709703
 20
92.96484452524903
 30
0.0
 11
-121.9999997728285
 21
92.96484452524903
 31
0.0
  0
LINE
  5
D3
330
D1
100
AcDbEntity
  8
1
  6
Continuous
 62
     2
100
AcDbLine
 10
-91.30013825709703
 20
139.2000004961209
 30
0.0
 11
-91.30013825709703
 21
91.46484452524903
 31
0.0
  0
LINE
  5
D4
330
D1
100
AcDbEntity
  8
1
  6
Continuous
 62
     2
100
AcDbLine
 10
-121.9999997728285
 20
113.465544952751
 30
0.0
 11
-121.9999997728285
 21
91.46484452524903
 31
0.0
  0
SOLID
  5
D5
330
D1
100
AcDbEntity
  8
1
 62
     2
100
AcDbTrace
 10
-94.80013825709703
 20
92.50406078369315
 30
0.0
 11
-94.80013825709703
 21
93.42562826680492
 31
0.0
 12
-91.30013825709703
 22
92.96484452524903
 32
0.0
 13
-91.30013825709703
 23
92.96484452524903
 33
0.0
  0
SOLID
  5
D6
330
D1
100
AcDbEntity
  8
1
 62
     2
100
AcDbTrace
 10
-118.4999997728285
 20
93.42562826680492
 30
0.0
 11
-118.4999997728285
 21
92.50406078369315
 31
0.0
 12
-121.9999997728285
 22
92.96484452524903
 32
0.0
 13
-121.9999997728285
 23
92.96484452524903
 33
0.0
  0
MTEXT
  5
D7
330
D1
100
AcDbEntity
  8
1
 62
     3
100
AcDbMText
 10
-112.0778682079319
 20
94.81484452524903
 30
0.0
 40
3.5
 41
0.0
 71
     7
 72
     1
  1
30,7
  7
CONVERTER_11
 11
0.9999999999970619
 21
2.424068405545306E-6
 31
0.0
 73
     1
 44
0.60024009603842
  0
ENDBLK
  5
D9
330
D1
100
AcDbEntity
  8
0
100
AcDbBlockEnd
  0
BLOCK
  5
173
330
16A
100
AcDbEntity
  8
0
100
AcDbBlockBegin
  2
*D19
 70
     1
 10
0.0
 20
0.0
 30
0.0
  3
*D19
  1

  0
LINE
  5
16B
330
16A
100
AcDbEntity
  8
1
  6
Continuous
 62
     2
100
AcDbLine
 10
-131.2887562135763
 20
54.15000009574263
 30
0.0
 11
-131.2887562135763
 21
61.15000009574263
 31
0.0
  0
LINE
  5
16C
330
16A
100
AcDbEntity
  8
1
  6
Continuous
 62
     2
100
AcDbLine
 10
-131.2887562135763
 20
61.15000009574263
 30
0.0
 11
-131.2887562135763
 21
63.15000009574263
 31
0.0
  0
LINE
  5
16D
330
16A
100
AcDbEntity
  8
1
  6
Continuous
 62
     2
100
AcDbLine
 10
-131.2887562135763
 20
63.15000009574263
 30
0.0
 11
-131.2887562135763
 21
70.15000009574263
 31
0.0
  0
LINE
  5
16E
330
16A
100
AcDbEntity
  8
1
  6
Continuous
 62
     2
100
AcDbLine
 10
-99.19697230980664
 20
61.15000009574263
 30
0.0
 11
-132.7887562135763
 21
61.15000009574263
 31
0.0
  0
LINE
  5
16F
330
16A
100
AcDbEntity
  8
1
  6
Continuous
 62
     2
100
AcDbLine
 10
-99.2676977514266
 20
63.15000009574263
 30
0.0
 11
-132.7887562135763
 21
63.15000009574263
 31
0.0
  0
SOLID
  5
170
330
16A
100
AcDbEntity
  8
1
 62
     2
100
AcDbTrace
 10
-130.8279724720204
 20
57.65000009574263
 30
0.0
 11
-131.7495399551322
 21
57.65000009574263
 31
0.0
 12
-131.2887562135763
 22
61.15000009574263
 32
0.0
 13
-131.2887562135763
 23
61.15000009574263
 33
0.0
  0
SOLID
  5
171
330
16A
100
AcDbEntity
  8
1
 62
     2
100
AcDbTrace
 10
-131.7495399551322
 20
66.65000009574263
 30
0.0
 11
-130.8279724720204
 21
66.65000009574263
 31
0.0
 12
-131.2887562135763
 22
63.15000009574263
 32
0.0
 13
-131.2887562135763
 23
63.15000009574263
 33
0.0
  0
MTEXT
  5
172
330
16A
100
AcDbEntity
  8
1
 62
     3
100
AcDbMText
 10
-132.7887562135763
 20
66.49113990039237
 30
0.0
 40
3.5
 41
0.0
 71
     7
 72
     1
  1
2
  7
CONVERTER_11
 11
0.0
 21
1.0
 31
0.0
 73
     1
 44
0.60024009603842
  0
ENDBLK
  5
174
330
16A
100
AcDbEntity
  8
0
100
AcDbBlockEnd
  0
ENDSEC
  0
SECTION
  2
ENTITIES
  0
INSERT
  5
86
330
1F
100
AcDbEntity
  8
1
100
AcDbBlockReference
  2
1
 10
0.0
 20
0.0
 30
0.0
  0
ENDSEC
  0
SECTION
  2
OBJECTS
  0
DICTIONARY
  5
C
330
0
100
AcDbDictionary
281
     1
  3
ACAD_GROUP
350
D
  3
ACAD_LAYOUT
350
1A
  3
ACAD_MATERIAL
350
3B
  3
ACAD_MLEADERSTYLE
350
2D7
  3
ACAD_MLINESTYLE
350
17
  3
ACAD_PLOTSETTINGS
350
19
  3
ACAD_PLOTSTYLENAME
350
E
  3
ACAD_TABLESTYLE
350
2D6
  3
ACAD_VISUALSTYLE
350
2A
  0
DICTIONARY
  5
D
102
{ACAD_REACTORS
330
C
102
}
330
C
100
AcDbDictionary
281
     1
  0
DICTIONARY
  5
1A
102
{ACAD_REACTORS
330
C
102
}
330
C
100
AcDbDictionary
281
     1
  3
Layout1
350
1E
  3
Layout2
350
26
  3
Model
350
22
  0
DICTIONARY
  5
3B
102
{ACAD_REACTORS
330
C
102
}
330
C
100
AcDbDictionary
281
     1
  3
ByBlock
350
3D
  3
ByLayer
350
3C
  3
Global
350
3E
  0
DICTIONARY
  5
2D7
102
{ACAD_REACTORS
330
C
102
}
330
C
100
AcDbDictionary
281
     1
  0
DICTIONARY
  5
17
102
{ACAD_REACTORS
330
C
102
}
330
C
100
AcDbDictionary
281
     1
  3
Standard
350
18
  0
DICTIONARY
  5
19
102
{ACAD_REACTORS
330
C
102
}
330
C
100
AcDbDictionary
281
     1
  0
ACDBDICTIONARYWDFLT
  5
E
102
{ACAD_REACTORS
330
C
102
}
330
C
100
AcDbDictionary
281
     1
  3
Normal
350
F
100
AcDbDictionaryWithDefault
340
F
  0
DICTIONARY
  5
2D6
102
{ACAD_REACTORS
330
C
102
}
330
C
100
AcDbDictionary
281
     1
  0
DICTIONARY
  5
2A
102
{ACAD_REACTORS
330
C
102
}
330
C
100
AcDbDictionary
281
     1
  3
2dWireframe
350
2F
  3
3D Hidden
350
31
  3
3dWireframe
350
30
  3
Basic
350
32
  3
Brighten
350
36
  3
ColorChange
350
3A
  3
Conceptual
350
34
  3
Dim
350
35
  3
Facepattern
350
39
  3
Flat
350
2B
  3
FlatWithEdges
350
2C
  3
Gouraud
350
2D
  3
GouraudWithEdges
350
2E
  3
Linepattern
350
38
  3
Realistic
350
33
  3
Thicken
350
37
  0
LAYOUT
  5
1E
102
{ACAD_REACTORS
330
1A
102
}
330
1A
100
AcDbPlotSettings
  1

  2
none_device
  4

  6

 40
0.0
 41
0.0
 42
0.0
 43
0.0
 44
0.0
 45
0.0
 46
0.0
 47
0.0
 48
0.0
 49
0.0
140
0.0
141
0.0
142
1.0
143
1.0
 70
   688
 72
     0
 73
     0
 74
     5
  7

 75
    16
 76
     0
 77
     2
 78
   300
147
1.0
148
0.0
149
0.0
100
AcDbLayout
  1
Layout1
 70
     1
 71
     1
 10
0.0
 20
0.0
 11
12.0
 21
9.0
 12
0.0
 22
0.0
 32
0.0
 14
1.00000000000000E+20
 24
1.00000000000000E+20
 34
1.00000000000000E+20
 15
-1.00000000000000E+20
 25
-1.00000000000000E+20
 35
-1.00000000000000E+20
146
0.0
 13
0.0
 23
0.0
 33
0.0
 16
1.0
 26
0.0
 36
0.0
 17
0.0
 27
1.0
 37
0.0
 76
     0
330
1B
  0
LAYOUT
  5
26
102
{ACAD_REACTORS
330
1A
102
}
330
1A
100
AcDbPlotSettings
  1

  2
none_device
  4

  6

 40
0.0
 41
0.0
 42
0.0
 43
0.0
 44
0.0
 45
0.0
 46
0.0
 47
0.0
 48
0.0
 49
0.0
140
0.0
141
0.0
142
1.0
143
1.0
 70
   688
 72
     0
 73
     0
 74
     5
  7

 75
    16
 76
     0
 77
     2
 78
   300
147
1.0
148
0.0
149
0.0
100
AcDbLayout
  1
Layout2
 70
     1
 71
     2
 10
0.0
 20
0.0
 11
0.0
 21
0.0
 12
0.0
 22
0.0
 32
0.0
 14
0.0
 24
0.0
 34
0.0
 15
0.0
 25
0.0
 35
0.0
146
0.0
 13
0.0
 23
0.0
 33
0.0
 16
1.0
 26
0.0
 36
0.0
 17
0.0
 27
1.0
 37
0.0
 76
     0
330
23
  0
LAYOUT
  5
22
102
{ACAD_REACTORS
330
1A
102
}
330
1A
100
AcDbPlotSettings
  1

  2
none_device
  4

  6

 40
0.0
 41
0.0
 42
0.0
 43
0.0
 44
0.0
 45
0.0
 46
0.0
 47
0.0
 48
0.0
 49
0.0
140
0.0
141
0.0
142
1.0
143
1.0
 70
  1712
 72
     0
 73
     0
 74
     0
  7

 75
     0
 76
     0
 77
     2
 78
   300
147
1.0
148
0.0
149
0.0
100
AcDbLayout
  1
Model
 70
     1
 71
     0
 10
0.0
 20
0.0
 11
12.0
 21
9.0
 12
0.0
 22
0.0
 32
0.0
 14
-224.9537951599508
 24
-3.53029234279876
 34
0.0
 15
72.04620484004727
 25
206.4697076572014
 35
0.0
146
0.0
 13
0.0
 23
0.0
 33
0.0
 16
1.0
 26
0.0
 36
0.0
 17
0.0
 27
1.0
 37
0.0
 76
     0
330
1F
331
29
  0
MATERIAL
  5
3D
102
{ACAD_REACTORS
330
3B
102
}
102
{ACAD_XDICTIONARY
360
2D2
102
}
330
3B
100
AcDbMaterial
  1
ByBlock
  0
MATERIAL
  5
3C
102
{ACAD_REACTORS
330
3B
102
}
102
{ACAD_XDICTIONARY
360
2D0
102
}
330
3B
100
AcDbMaterial
  1
ByLayer
  0
MATERIAL
  5
3E
102
{ACAD_REACTORS
330
3B
102
}
102
{ACAD_XDICTIONARY
360
2D4
102
}
330
3B
100
AcDbMaterial
  1
Global
  0
MLINESTYLE
  5
18
102
{ACAD_REACTORS
330
17
102
}
330
17
100
AcDbMlineStyle
  2
Standard
 70
     0
  3

 62
   256
 51
90.0
 52
90.0
 71
     2
 49
0.5
 62
   256
  6
BYLAYER
 49
-0.5
 62
   256
  6
BYLAYER
  0
ACDBPLACEHOLDER
  5
F
102
{ACAD_REACTORS
330
E
102
}
330
E
  0
VISUALSTYLE
  5
2F
102
{ACAD_REACTORS
330
2A
102
}
102
{ACAD_XDICTIONARY
360
2B8
102
}
330
2A
100
AcDbVisualStyle
  2
2dWireframe
 70
     4
 71
     0
 72
     2
 73
     0
 90
        0
 40
-0.6
 41
-30.0
 62
     5
 63
     7
421
 16777215
 74
     1
 91
        4
 64
     7
 65
   257
 75
     1
175
     1
 42
1.0
 92
        0
 66
   257
 43
1.0
 76
     1
 77
     6
 78
     2
 67
     7
 79
     5
170
     0
171
     0
290
     0
174
     0
 93
        1
 44
0.0
173
     0
291
     0
 45
0.0
1001
ACAD
1000
AcDbSavedByObjectVersion
1070
     0
  0
VISUALSTYLE
  5
31
102
{ACAD_REACTORS
330
2A
102
}
102
{ACAD_XDICTIONARY
360
2BC
102
}
330
2A
100
AcDbVisualStyle
  2
3D Hidden
 70
     6
 71
     1
 72
     2
 73
     2
 90
        0
 40
-0.6
 41
-30.0
 62
     5
 63
     7
421
 16777215
 74
     2
 91
        2
 64
     7
 65
   257
 75
     2
175
     1
 42
40.0
 92
        0
 66
   257
 43
1.0
 76
     1
 77
     6
 78
     2
 67
     7
 79
     3
170
     0
171
     0
290
     0
174
     0
 93
        1
 44
0.0
173
     0
291
     0
 45
0.0
1001
ACAD
1000
AcDbSavedByObjectVersion
1070
     0
  0
VISUALSTYLE
  5
30
102
{ACAD_REACTORS
330
2A
102
}
102
{ACAD_XDICTIONARY
360
2BA
102
}
330
2A
100
AcDbVisualStyle
  2
3dWireframe
 70
     5
 71
     0
 72
     2
 73
     0
 90
        0
 40
-0.6
 41
-30.0
 62
     5
 63
     7
421
 16777215
 74
     1
 91
        4
 64
     7
 65
   257
 75
     1
175
     1
 42
1.0
 92
        0
 66
   257
 43
1.0
 76
     1
 77
     6
 78
     2
 67
     7
 79
     5
170
     0
171
     0
290
     0
174
     0
 93
        1
 44
0.0
173
     0
291
     0
 45
0.0
1001
ACAD
1000
AcDbSavedByObjectVersion
1070
     0
  0
VISUALSTYLE
  5
32
102
{ACAD_REACTORS
330
2A
102
}
102
{ACAD_XDICTIONARY
360
2BE
102
}
330
2A
100
AcDbVisualStyle
  2
Basic
 70
     7
 71
     1
 72
     0
 73
     1
 90
        0
 40
-0.6
 41
-30.0
 62
     5
 63
     7
421
 16777215
 74
     0
 91
        4
 64
     7
 65
   257
 75
     1
175
     1
 42
1.0
 92
        8
 66
     7
 43
1.0
 76
     1
 77
     6
 78
     2
 67
     7
 79
     5
170
     0
171
     0
290
     0
174
     0
 93
        1
 44
0.0
173
     0
291
     1
 45
0.0
1001
ACAD
1000
AcDbSavedByObjectVersion
1070
     0
  0
VISUALSTYLE
  5
36
102
{ACAD_REACTORS
330
2A
102
}
102
{ACAD_XDICTIONARY
360
2C6
102
}
330
2A
100
AcDbVisualStyle
  2
Brighten
 70
    12
 71
     2
 72
     2
 73
     0
 90
        0
 40
-0.6
 41
-30.0
 62
     5
 63
     7
421
 16777215
 74
     1
 91
        4
 64
     7
 65
   257
 75
     1
175
     1
 42
1.0
 92
        8
 66
     7
 43
1.0
 76
     1
 77
     6
 78
     2
 67
     7
 79
     5
170
     0
171
     0
290
     0
174
     0
 93
        1
 44
50.0
173
     0
291
     1
 45
0.0
1001
ACAD
1000
AcDbSavedByObjectVersion
1070
     0
  0
VISUALSTYLE
  5
3A
102
{ACAD_REACTORS
330
2A
102
}
102
{ACAD_XDICTIONARY
360
2CE
102
}
330
2A
100
AcDbVisualStyle
  2
ColorChange
 70
    16
 71
     2
 72
     2
 73
     3
 90
        0
 40
-0.6
 41
-30.0
 62
     5
 63
     8
421
  8421504
 74
     1
 91
        4
 64
     7
 65
   257
 75
     1
175
     1
 42
1.0
 92
        8
 66
     8
424
  8421504
 43
1.0
 76
     1
 77
     6
 78
     2
 67
     7
 79
     5
170
     0
171
     0
290
     0
174
     0
 93
        1
 44
0.0
173
     0
291
     1
 45
0.0
1001
ACAD
1000
AcDbSavedByObjectVersion
1070
     0
  0
VISUALSTYLE
  5
34
102
{ACAD_REACTORS
330
2A
102
}
102
{ACAD_XDICTIONARY
360
2C2
102
}
330
2A
100
AcDbVisualStyle
  2
Conceptual
 70
     9
 71
     3
 72
     2
 73
     0
 90
        0
 40
-0.6
 41
-30.0
 62
     5
 63
     7
421
 16777215
 74
     2
 91
        2
 64
     7
 65
   257
 75
     1
175
     1
 42
40.0
 92
        8
 66
     7
 43
1.0
 76
     1
 77
     6
 78
     2
 67
     7
 79
     3
170
     0
171
     0
290
     0
174
     0
 93
        1
 44
0.0
173
     0
291
     0
 45
0.0
1001
ACAD
1000
AcDbSavedByObjectVersion
1070
     0
  0
VISUALSTYLE
  5
35
102
{ACAD_REACTORS
330
2A
102
}
102
{ACAD_XDICTIONARY
360
2C4
102
}
330
2A
100
AcDbVisualStyle
  2
Dim
 70
    11
 71
     2
 72
     2
 73
     0
 90
        0
 40
-0.6
 41
-30.0
 62
     5
 63
     7
421
 16777215
 74
     1
 91
        4
 64
     7
 65
   257
 75
     1
175
     1
 42
1.0
 92
        8
 66
     7
 43
1.0
 76
     1
 77
     6
 78
     2
 67
     7
 79
     5
170
     0
171
     0
290
     0
174
     0
 93
        1
 44
-50.0
173
     0
291
     1
 45
0.0
1001
ACAD
1000
AcDbSavedByObjectVersion
1070
     0
  0
VISUALSTYLE
  5
39
102
{ACAD_REACTORS
330
2A
102
}
102
{ACAD_XDICTIONARY
360
2CC
102
}
330
2A
100
AcDbVisualStyle
  2
Facepattern
 70
    15
 71
     2
 72
     2
 73
     0
 90
        0
 40
-0.6
 41
-30.0
 62
     5
 63
     7
421
 16777215
 74
     1
 91
        4
 64
     7
 65
   257
 75
     1
175
     1
 42
1.0
 92
        8
 66
     7
 43
1.0
 76
     1
 77
     6
 78
     2
 67
     7
 79
     5
170
     0
171
     0
290
     0
174
     0
 93
        1
 44
0.0
173
     0
291
     1
 45
0.0
1001
ACAD
1000
AcDbSavedByObjectVersion
1070
     0
  0
VISUALSTYLE
  5
2B
102
{ACAD_REACTORS
330
2A
102
}
102
{ACAD_XDICTIONARY
360
2B0
102
}
330
2A
100
AcDbVisualStyle
  2
Flat
 70
     0
 71
     2
 72
     1
 73
     1
 90
        2
 40
-0.6
 41
30.0
 62
     5
 63
     7
421
 16777215
 74
     0
 91
        4
 64
     7
 65
   257
 75
     1
175
     1
 42
1.0
 92
        8
 66
     7
 43
1.0
 76
     1
 77
     6
 78
     2
 67
     7
 79
     5
170
     0
171
     0
290
     0
174
     0
 93
       13
 44
0.0
173
     0
291
     1
 45
0.0
1001
ACAD
1000
AcDbSavedByObjectVersion
1070
     0
  0
VISUALSTYLE
  5
2C
102
{ACAD_REACTORS
330
2A
102
}
102
{ACAD_XDICTIONARY
360
2B2
102
}
330
2A
100
AcDbVisualStyle
  2
FlatWithEdges
 70
     1
 71
     2
 72
     1
 73
     1
 90
        2
 40
-0.6
 41
30.0
 62
     5
 63
     7
421
 16777215
 74
     1
 91
        4
 64
     7
 65
   257
 75
     1
175
     1
 42
1.0
 92
        0
 66
   257
 43
1.0
 76
     1
 77
     6
 78
     2
 67
     7
 79
     5
170
     0
171
     0
290
     0
174
     0
 93
       13
 44
0.0
173
     0
291
     1
 45
0.0
1001
ACAD
1000
AcDbSavedByObjectVersion
1070
     0
  0
VISUALSTYLE
  5
2D
102
{ACAD_REACTORS
330
2A
102
}
102
{ACAD_XDICTIONARY
360
2B4
102
}
330
2A
100
AcDbVisualStyle
  2
Gouraud
 70
     2
 71
     2
 72
     2
 73
     1
 90
        2
 40
-0.6
 41
30.0
 62
     5
 63
     7
421
 16777215
 74
     0
 91
        4
 64
     7
 65
   257
 75
     1
175
     1
 42
1.0
 92
        0
 66
     7
 43
1.0
 76
     1
 77
     6
 78
     2
 67
     7
 79
     5
170
     0
171
     0
290
     0
174
     0
 93
       13
 44
0.0
173
     0
291
     1
 45
0.0
1001
ACAD
1000
AcDbSavedByObjectVersion
1070
     0
  0
VISUALSTYLE
  5
2E
102
{ACAD_REACTORS
330
2A
102
}
102
{ACAD_XDICTIONARY
360
2B6
102
}
330
2A
100
AcDbVisualStyle
  2
GouraudWithEdges
 70
     3
 71
     2
 72
     2
 73
     1
 90
        2
 40
-0.6
 41
30.0
 62
     5
 63
     7
421
 16777215
 74
     1
 91
        4
 64
     7
 65
   257
 75
     1
175
     1
 42
1.0
 92
        0
 66
   257
 43
1.0
 76
     1
 77
     6
 78
     2
 67
     7
 79
     5
170
     0
171
     0
290
     0
174
     0
 93
       13
 44
0.0
173
     0
291
     1
 45
0.0
1001
ACAD
1000
AcDbSavedByObjectVersion
1070
     0
  0
VISUALSTYLE
  5
38
102
{ACAD_REACTORS
330
2A
102
}
102
{ACAD_XDICTIONARY
360
2CA
102
}
330
2A
100
AcDbVisualStyle
  2
Linepattern
 70
    14
 71
     2
 72
     2
 73
     0
 90
        0
 40
-0.6
 41
-30.0
 62
     5
 63
     7
421
 16777215
 74
     1
 91
        4
 64
     7
 65
   257
 75
     7
175
     7
 42
1.0
 92
        8
 66
     7
 43
1.0
 76
     1
 77
     6
 78
     2
 67
     7
 79
     5
170
     0
171
     0
290
     0
174
     0
 93
        1
 44
0.0
173
     0
291
     1
 45
0.0
1001
ACAD
1000
AcDbSavedByObjectVersion
1070
     0
  0
VISUALSTYLE
  5
33
102
{ACAD_REACTORS
330
2A
102
}
102
{ACAD_XDICTIONARY
360
2C0
102
}
330
2A
100
AcDbVisualStyle
  2
Realistic
 70
     8
 71
     2
 72
     2
 73
     0
 90
        0
 40
-0.6
 41
-30.0
 62
     5
 63
     7
421
 16777215
 74
     1
 91
        0
 64
     7
 65
   257
 75
     1
175
     1
 42
1.0
 92
        8
 66
     8
424
  7895160
 43
1.0
 76
     1
 77
     6
 78
     2
 67
     7
 79
     5
170
     0
171
     0
290
     0
174
     0
 93
       13
 44
0.0
173
     0
291
     0
 45
0.0
1001
ACAD
1000
AcDbSavedByObjectVersion
1070
     0
  0
VISUALSTYLE
  5
37
102
{ACAD_REACTORS
330
2A
102
}
102
{ACAD_XDICTIONARY
360
2C8
102
}
330
2A
100
AcDbVisualStyle
  2
Thicken
 70
    13
 71
     2
 72
     2
 73
     0
 90
        0
 40
-0.6
 41
-30.0
 62
     5
 63
     7
421
 16777215
 74
     1
 91
        4
 64
     7
 65
   257
 75
     1
175
     1
 42
1.0
 92
       12
 66
     7
 43
1.0
 76
     1
 77
     6
 78
     2
 67
     7
 79
     5
170
     0
171
     0
290
     0
174
     0
 93
        1
 44
0.0
173
     0
291
     1
 45
0.0
1001
ACAD
1000
AcDbSavedByObjectVersion
1070
     0
  0
DICTIONARY
  5
2D2
330
3D
100
AcDbDictionary
280
     1
281
     1
  3
ACAD_XREC_ROUNDTRIP
360
2D3
  0
DICTIONARY
  5
2D0
330
3C
100
AcDbDictionary
280
     1
281
     1
  3
ACAD_XREC_ROUNDTRIP
360
2D1
  0
DICTIONARY
  5
2D4
330
3E
100
AcDbDictionary
280
     1
281
     1
  3
ACAD_XREC_ROUNDTRIP
360
2D5
  0
DICTIONARY
  5
2B8
330
2F
100
AcDbDictionary
280
     1
281
     1
  3
ACAD_XREC_ROUNDTRIP
360
2B9
  0
DICTIONARY
  5
2BC
330
31
100
AcDbDictionary
280
     1
281
     1
  3
ACAD_XREC_ROUNDTRIP
360
2BD
  0
DICTIONARY
  5
2BA
330
30
100
AcDbDictionary
280
     1
281
     1
  3
ACAD_XREC_ROUNDTRIP
360
2BB
  0
DICTIONARY
  5
2BE
330
32
100
AcDbDictionary
280
     1
281
     1
  3
ACAD_XREC_ROUNDTRIP
360
2BF
  0
DICTIONARY
  5
2C6
330
36
100
AcDbDictionary
280
     1
281
     1
  3
ACAD_XREC_ROUNDTRIP
360
2C7
  0
DICTIONARY
  5
2CE
330
3A
100
AcDbDictionary
280
     1
281
     1
  3
ACAD_XREC_ROUNDTRIP
360
2CF
  0
DICTIONARY
  5
2C2
330
34
100
AcDbDictionary
280
     1
281
     1
  3
ACAD_XREC_ROUNDTRIP
360
2C3
  0
DICTIONARY
  5
2C4
330
35
100
AcDbDictionary
280
     1
281
     1
  3
ACAD_XREC_ROUNDTRIP
360
2C5
  0
DICTIONARY
  5
2CC
330
39
100
AcDbDictionary
280
     1
281
     1
  3
ACAD_XREC_ROUNDTRIP
360
2CD
  0
DICTIONARY
  5
2B0
330
2B
100
AcDbDictionary
280
     1
281
     1
  3
ACAD_XREC_ROUNDTRIP
360
2B1
  0
DICTIONARY
  5
2B2
330
2C
100
AcDbDictionary
280
     1
281
     1
  3
ACAD_XREC_ROUNDTRIP
360
2B3
  0
DICTIONARY
  5
2B4
330
2D
100
AcDbDictionary
280
     1
281
     1
  3
ACAD_XREC_ROUNDTRIP
360
2B5
  0
DICTIONARY
  5
2B6
330
2E
100
AcDbDictionary
280
     1
281
     1
  3
ACAD_XREC_ROUNDTRIP
360
2B7
  0
DICTIONARY
  5
2CA
330
38
100
AcDbDictionary
280
     1
281
     1
  3
ACAD_XREC_ROUNDTRIP
360
2CB
  0
DICTIONARY
  5
2C0
330
33
100
AcDbDictionary
280
     1
281
     1
  3
ACAD_XREC_ROUNDTRIP
360
2C1
  0
DICTIONARY
  5
2C8
330
37
100
AcDbDictionary
280
     1
281
     1
  3
ACAD_XREC_ROUNDTRIP
360
2C9
  0
XRECORD
  5
2D3
102
{ACAD_REACTORS
330
2D2
102
}
330
2D2
100
AcDbXrecord
280
     1
102
MATERIAL
148
0.0
149
0.0
149
0.0
 93
        0
 94
      127
282
     0
 72
     1
 77
     1
171
     1
175
     1
179
     1
273
     0
  0
XRECORD
  5
2D1
102
{ACAD_REACTORS
330
2D0
102
}
330
2D0
100
AcDbXrecord
280
     1
102
MATERIAL
148
0.0
149
0.0
149
0.0
 93
        0
 94
      127
282
     0
 72
     1
 77
     1
171
     1
175
     1
179
     1
273
     0
  0
XRECORD
  5
2D5
102
{ACAD_REACTORS
330
2D4
102
}
330
2D4
100
AcDbXrecord
280
     1
102
MATERIAL
148
0.0
149
0.0
149
0.0
 93
        0
 94
      127
282
     0
 72
     1
 77
     1
171
     1
175
     1
179
     1
273
     0
  0
XRECORD
  5
2B9
102
{ACAD_REACTORS
330
2B8
102
}
330
2B8
100
AcDbXrecord
280
     1
102
RTVSPropertyOp0
 70
     1
102
RTVSPropertyOp1
 70
     1
102
RTVSPropertyOp2
 70
     1
102
RTVSPropertyOp3
 70
     1
102
RTVSPropertyOp4
 70
     1
102
RTVSPropertyOp5
 70
     1
102
RTVSPropertyOp6
 70
     1
102
RTVSPropertyOp7
 70
     1
102
RTVSPropertyOp8
 70
     1
102
RTVSPropertyOp9
 70
     1
102
RTVSPropertyOp10
 70
     1
102
RTVSPropertyOp11
 70
     1
102
RTVSPropertyOp12
 70
     1
102
RTVSPropertyOp13
 70
     1
102
RTVSPropertyOp14
 70
     1
102
RTVSPropertyOp15
 70
     1
102
RTVSPropertyOp16
 70
     1
102
RTVSPropertyOp17
 70
     1
102
RTVSPropertyOp18
 70
     1
102
RTVSPropertyOp19
 70
     1
102
RTVSPropertyOp20
 70
     1
102
RTVSPropertyOp21
 70
     1
102
RTVSPropertyOp22
 70
     1
102
RTVSPropertyOp23
 70
     1
102
RTVSPropertyOp24
 70
     1
102
RTVSPropertyOp25
 70
     1
102
RTVSPropertyOp26
 70
     1
102
RTVSPropertyOp27
 70
     1
102
RTVSPropertyOp28
 70
     1
102
RTVSPropertyOp29
 70
     1
102
RTVSPropertyOp30
 70
     1
102
RTVSPropertyOp31
 70
     1
102
RTVSPropertyOp32
 70
     1
  0
XRECORD
  5
2BD
102
{ACAD_REACTORS
330
2BC
102
}
330
2BC
100
AcDbXrecord
280
     1
102
RTVSPropertyOp0
 70
     1
102
RTVSPropertyOp1
 70
     1
102
RTVSPropertyOp2
 70
     1
102
RTVSPropertyOp3
 70
     1
102
RTVSPropertyOp4
 70
     1
102
RTVSPropertyOp5
 70
     1
102
RTVSPropertyOp6
 70
     1
102
RTVSPropertyOp7
 70
     1
102
RTVSPropertyOp8
 70
     1
102
RTVSPropertyOp9
 70
     1
102
RTVSPropertyOp10
 70
     1
102
RTVSPropertyOp11
 70
     1
102
RTVSPropertyOp12
 70
     1
102
RTVSPropertyOp13
 70
     1
102
RTVSPropertyOp14
 70
     1
102
RTVSPropertyOp15
 70
     1
102
RTVSPropertyOp16
 70
     1
102
RTVSPropertyOp17
 70
     1
102
RTVSPropertyOp18
 70
     1
102
RTVSPropertyOp19
 70
     1
102
RTVSPropertyOp20
 70
     1
102
RTVSPropertyOp21
 70
     1
102
RTVSPropertyOp22
 70
     1
102
RTVSPropertyOp23
 70
     1
102
RTVSPropertyOp24
 70
     1
102
RTVSPropertyOp25
 70
     1
102
RTVSPropertyOp26
 70
     1
102
RTVSPropertyOp27
 70
     1
102
RTVSPropertyOp28
 70
     1
102
RTVSPropertyOp29
 70
     1
102
RTVSPropertyOp30
 70
     1
102
RTVSPropertyOp31
 70
     1
102
RTVSPropertyOp32
 70
     1
  0
XRECORD
  5
2BB
102
{ACAD_REACTORS
330
2BA
102
}
330
2BA
100
AcDbXrecord
280
     1
102
RTVSPropertyOp0
 70
     1
102
RTVSPropertyOp1
 70
     1
102
RTVSPropertyOp2
 70
     1
102
RTVSPropertyOp3
 70
     1
102
RTVSPropertyOp4
 70
     1
102
RTVSPropertyOp5
 70
     1
102
RTVSPropertyOp6
 70
     1
102
RTVSPropertyOp7
 70
     1
102
RTVSPropertyOp8
 70
     1
102
RTVSPropertyOp9
 70
     1
102
RTVSPropertyOp10
 70
     1
102
RTVSPropertyOp11
 70
     1
102
RTVSPropertyOp12
 70
     1
102
RTVSPropertyOp13
 70
     1
102
RTVSPropertyOp14
 70
     1
102
RTVSPropertyOp15
 70
     1
102
RTVSPropertyOp16
 70
     1
102
RTVSPropertyOp17
 70
     1
102
RTVSPropertyOp18
 70
     1
102
RTVSPropertyOp19
 70
     1
102
RTVSPropertyOp20
 70
     1
102
RTVSPropertyOp21
 70
     1
102
RTVSPropertyOp22
 70
     1
102
RTVSPropertyOp23
 70
     1
102
RTVSPropertyOp24
 70
     1
102
RTVSPropertyOp25
 70
     1
102
RTVSPropertyOp26
 70
     1
102
RTVSPropertyOp27
 70
     1
102
RTVSPropertyOp28
 70
     1
102
RTVSPropertyOp29
 70
     1
102
RTVSPropertyOp30
 70
     1
102
RTVSPropertyOp31
 70
     1
102
RTVSPropertyOp32
 70
     1
  0
XRECORD
  5
2BF
102
{ACAD_REACTORS
330
2BE
102
}
330
2BE
100
AcDbXrecord
280
     1
102
RTVSPropertyOp0
 70
     1
102
RTVSPropertyOp1
 70
     1
102
RTVSPropertyOp2
 70
     1
102
RTVSPropertyOp3
 70
     1
102
RTVSPropertyOp4
 70
     1
102
RTVSPropertyOp5
 70
     1
102
RTVSPropertyOp6
 70
     1
102
RTVSPropertyOp7
 70
     1
102
RTVSPropertyOp8
 70
     1
102
RTVSPropertyOp9
 70
     1
102
RTVSPropertyOp10
 70
     1
102
RTVSPropertyOp11
 70
     1
102
RTVSPropertyOp12
 70
     1
102
RTVSPropertyOp13
 70
     1
102
RTVSPropertyOp14
 70
     1
102
RTVSPropertyOp15
 70
     1
102
RTVSPropertyOp16
 70
     1
102
RTVSPropertyOp17
 70
     1
102
RTVSPropertyOp18
 70
     1
102
RTVSPropertyOp19
 70
     1
102
RTVSPropertyOp20
 70
     1
102
RTVSPropertyOp21
 70
     1
102
RTVSPropertyOp22
 70
     1
102
RTVSPropertyOp23
 70
     1
102
RTVSPropertyOp24
 70
     1
102
RTVSPropertyOp25
 70
     1
102
RTVSPropertyOp26
 70
     1
102
RTVSPropertyOp27
 70
     1
102
RTVSPropertyOp28
 70
     1
102
RTVSPropertyOp29
 70
     1
102
RTVSPropertyOp30
 70
     1
102
RTVSPropertyOp31
 70
     1
102
RTVSPropertyOp32
 70
     1
  0
XRECORD
  5
2C7
102
{ACAD_REACTORS
330
2C6
102
}
330
2C6
100
AcDbXrecord
280
     1
102
RTVSPropertyOp0
 70
     1
102
RTVSPropertyOp1
 70
     1
102
RTVSPropertyOp2
 70
     1
102
RTVSPropertyOp3
 70
     1
102
RTVSPropertyOp4
 70
     1
102
RTVSPropertyOp5
 70
     1
102
RTVSPropertyOp6
 70
     1
102
RTVSPropertyOp7
 70
     1
102
RTVSPropertyOp8
 70
     1
102
RTVSPropertyOp9
 70
     1
102
RTVSPropertyOp10
 70
     1
102
RTVSPropertyOp11
 70
     1
102
RTVSPropertyOp12
 70
     1
102
RTVSPropertyOp13
 70
     1
102
RTVSPropertyOp14
 70
     1
102
RTVSPropertyOp15
 70
     1
102
RTVSPropertyOp16
 70
     1
102
RTVSPropertyOp17
 70
     1
102
RTVSPropertyOp18
 70
     1
102
RTVSPropertyOp19
 70
     1
102
RTVSPropertyOp20
 70
     1
102
RTVSPropertyOp21
 70
     1
102
RTVSPropertyOp22
 70
     1
102
RTVSPropertyOp23
 70
     1
102
RTVSPropertyOp24
 70
     1
102
RTVSPropertyOp25
 70
     1
102
RTVSPropertyOp26
 70
     1
102
RTVSPropertyOp27
 70
     1
102
RTVSPropertyOp28
 70
     1
102
RTVSPropertyOp29
 70
     1
102
RTVSPropertyOp30
 70
     1
102
RTVSPropertyOp31
 70
     1
102
RTVSPropertyOp32
 70
     1
  0
XRECORD
  5
2CF
102
{ACAD_REACTORS
330
2CE
102
}
330
2CE
100
AcDbXrecord
280
     1
102
RTVSPropertyOp0
 70
     1
102
RTVSPropertyOp1
 70
     1
102
RTVSPropertyOp2
 70
     1
102
RTVSPropertyOp3
 70
     1
102
RTVSPropertyOp4
 70
     1
102
RTVSPropertyOp5
 70
     1
102
RTVSPropertyOp6
 70
     1
102
RTVSPropertyOp7
 70
     1
102
RTVSPropertyOp8
 70
     1
102
RTVSPropertyOp9
 70
     1
102
RTVSPropertyOp10
 70
     1
102
RTVSPropertyOp11
 70
     1
102
RTVSPropertyOp12
 70
     1
102
RTVSPropertyOp13
 70
     1
102
RTVSPropertyOp14
 70
     1
102
RTVSPropertyOp15
 70
     1
102
RTVSPropertyOp16
 70
     1
102
RTVSPropertyOp17
 70
     1
102
RTVSPropertyOp18
 70
     1
102
RTVSPropertyOp19
 70
     1
102
RTVSPropertyOp20
 70
     1
102
RTVSPropertyOp21
 70
     1
102
RTVSPropertyOp22
 70
     1
102
RTVSPropertyOp23
 70
     1
102
RTVSPropertyOp24
 70
     1
102
RTVSPropertyOp25
 70
     1
102
RTVSPropertyOp26
 70
     1
102
RTVSPropertyOp27
 70
     1
102
RTVSPropertyOp28
 70
     1
102
RTVSPropertyOp29
 70
     1
102
RTVSPropertyOp30
 70
     1
102
RTVSPropertyOp31
 70
     1
102
RTVSPropertyOp32
 70
     1
  0
XRECORD
  5
2C3
102
{ACAD_REACTORS
330
2C2
102
}
330
2C2
100
AcDbXrecord
280
     1
102
RTVSPropertyOp0
 70
     1
102
RTVSPropertyOp1
 70
     1
102
RTVSPropertyOp2
 70
     1
102
RTVSPropertyOp3
 70
     1
102
RTVSPropertyOp4
 70
     1
102
RTVSPropertyOp5
 70
     1
102
RTVSPropertyOp6
 70
     1
102
RTVSPropertyOp7
 70
     1
102
RTVSPropertyOp8
 70
     1
102
RTVSPropertyOp9
 70
     1
102
RTVSPropertyOp10
 70
     1
102
RTVSPropertyOp11
 70
     1
102
RTVSPropertyOp12
 70
     1
102
RTVSPropertyOp13
 70
     1
102
RTVSPropertyOp14
 70
     1
102
RTVSPropertyOp15
 70
     1
102
RTVSPropertyOp16
 70
     1
102
RTVSPropertyOp17
 70
     1
102
RTVSPropertyOp18
 70
     1
102
RTVSPropertyOp19
 70
     1
102
RTVSPropertyOp20
 70
     1
102
RTVSPropertyOp21
 70
     1
102
RTVSPropertyOp22
 70
     1
102
RTVSPropertyOp23
 70
     1
102
RTVSPropertyOp24
 70
     1
102
RTVSPropertyOp25
 70
     1
102
RTVSPropertyOp26
 70
     1
102
RTVSPropertyOp27
 70
     1
102
RTVSPropertyOp28
 70
     1
102
RTVSPropertyOp29
 70
     1
102
RTVSPropertyOp30
 70
     1
102
RTVSPropertyOp31
 70
     1
102
RTVSPropertyOp32
 70
     1
  0
XRECORD
  5
2C5
102
{ACAD_REACTORS
330
2C4
102
}
330
2C4
100
AcDbXrecord
280
     1
102
RTVSPropertyOp0
 70
     1
102
RTVSPropertyOp1
 70
     1
102
RTVSPropertyOp2
 70
     1
102
RTVSPropertyOp3
 70
     1
102
RTVSPropertyOp4
 70
     1
102
RTVSPropertyOp5
 70
     1
102
RTVSPropertyOp6
 70
     1
102
RTVSPropertyOp7
 70
     1
102
RTVSPropertyOp8
 70
     1
102
RTVSPropertyOp9
 70
     1
102
RTVSPropertyOp10
 70
     1
102
RTVSPropertyOp11
 70
     1
102
RTVSPropertyOp12
 70
     1
102
RTVSPropertyOp13
 70
     1
102
RTVSPropertyOp14
 70
     1
102
RTVSPropertyOp15
 70
     1
102
RTVSPropertyOp16
 70
     1
102
RTVSPropertyOp17
 70
     1
102
RTVSPropertyOp18
 70
     1
102
RTVSPropertyOp19
 70
     1
102
RTVSPropertyOp20
 70
     1
102
RTVSPropertyOp21
 70
     1
102
RTVSPropertyOp22
 70
     1
102
RTVSPropertyOp23
 70
     1
102
RTVSPropertyOp24
 70
     1
102
RTVSPropertyOp25
 70
     1
102
RTVSPropertyOp26
 70
     1
102
RTVSPropertyOp27
 70
     1
102
RTVSPropertyOp28
 70
     1
102
RTVSPropertyOp29
 70
     1
102
RTVSPropertyOp30
 70
     1
102
RTVSPropertyOp31
 70
     1
102
RTVSPropertyOp32
 70
     1
  0
XRECORD
  5
2CD
102
{ACAD_REACTORS
330
2CC
102
}
330
2CC
100
AcDbXrecord
280
     1
102
RTVSPropertyOp0
 70
     1
102
RTVSPropertyOp1
 70
     1
102
RTVSPropertyOp2
 70
     1
102
RTVSPropertyOp3
 70
     1
102
RTVSPropertyOp4
 70
     1
102
RTVSPropertyOp5
 70
     1
102
RTVSPropertyOp6
 70
     1
102
RTVSPropertyOp7
 70
     1
102
RTVSPropertyOp8
 70
     1
102
RTVSPropertyOp9
 70
     1
102
RTVSPropertyOp10
 70
     1
102
RTVSPropertyOp11
 70
     1
102
RTVSPropertyOp12
 70
     1
102
RTVSPropertyOp13
 70
     1
102
RTVSPropertyOp14
 70
     1
102
RTVSPropertyOp15
 70
     1
102
RTVSPropertyOp16
 70
     1
102
RTVSPropertyOp17
 70
     1
102
RTVSPropertyOp18
 70
     1
102
RTVSPropertyOp19
 70
     1
102
RTVSPropertyOp20
 70
     1
102
RTVSPropertyOp21
 70
     1
102
RTVSPropertyOp22
 70
     1
102
RTVSPropertyOp23
 70
     1
102
RTVSPropertyOp24
 70
     1
102
RTVSPropertyOp25
 70
     1
102
RTVSPropertyOp26
 70
     1
102
RTVSPropertyOp27
 70
     1
102
RTVSPropertyOp28
 70
     1
102
RTVSPropertyOp29
 70
     1
102
RTVSPropertyOp30
 70
     1
102
RTVSPropertyOp31
 70
     1
102
RTVSPropertyOp32
 70
     1
  0
XRECORD
  5
2B1
102
{ACAD_REACTORS
330
2B0
102
}
330
2B0
100
AcDbXrecord
280
     1
102
RTVSPropertyOp0
 70
     1
102
RTVSPropertyOp1
 70
     1
102
RTVSPropertyOp2
 70
     1
102
RTVSPropertyOp3
 70
     1
102
RTVSPropertyOp4
 70
     1
102
RTVSPropertyOp5
 70
     1
102
RTVSPropertyOp6
 70
     1
102
RTVSPropertyOp7
 70
     1
102
RTVSPropertyOp8
 70
     1
102
RTVSPropertyOp9
 70
     1
102
RTVSPropertyOp10
 70
     1
102
RTVSPropertyOp11
 70
     1
102
RTVSPropertyOp12
 70
     1
102
RTVSPropertyOp13
 70
     1
102
RTVSPropertyOp14
 70
     1
102
RTVSPropertyOp15
 70
     1
102
RTVSPropertyOp16
 70
     1
102
RTVSPropertyOp17
 70
     1
102
RTVSPropertyOp18
 70
     1
102
RTVSPropertyOp19
 70
     1
102
RTVSPropertyOp20
 70
     1
102
RTVSPropertyOp21
 70
     1
102
RTVSPropertyOp22
 70
     1
102
RTVSPropertyOp23
 70
     1
102
RTVSPropertyOp24
 70
     1
102
RTVSPropertyOp25
 70
     1
102
RTVSPropertyOp26
 70
     1
102
RTVSPropertyOp27
 70
     1
102
RTVSPropertyOp28
 70
     1
102
RTVSPropertyOp29
 70
     1
102
RTVSPropertyOp30
 70
     1
102
RTVSPropertyOp31
 70
     1
102
RTVSPropertyOp32
 70
     1
  0
XRECORD
  5
2B3
102
{ACAD_REACTORS
330
2B2
102
}
330
2B2
100
AcDbXrecord
280
     1
102
RTVSPropertyOp0
 70
     1
102
RTVSPropertyOp1
 70
     1
102
RTVSPropertyOp2
 70
     1
102
RTVSPropertyOp3
 70
     1
102
RTVSPropertyOp4
 70
     1
102
RTVSPropertyOp5
 70
     1
102
RTVSPropertyOp6
 70
     1
102
RTVSPropertyOp7
 70
     1
102
RTVSPropertyOp8
 70
     1
102
RTVSPropertyOp9
 70
     1
102
RTVSPropertyOp10
 70
     1
102
RTVSPropertyOp11
 70
     1
102
RTVSPropertyOp12
 70
     1
102
RTVSPropertyOp13
 70
     1
102
RTVSPropertyOp14
 70
     1
102
RTVSPropertyOp15
 70
     1
102
RTVSPropertyOp16
 70
     1
102
RTVSPropertyOp17
 70
     1
102
RTVSPropertyOp18
 70
     1
102
RTVSPropertyOp19
 70
     1
102
RTVSPropertyOp20
 70
     1
102
RTVSPropertyOp21
 70
     1
102
RTVSPropertyOp22
 70
     1
102
RTVSPropertyOp23
 70
     1
102
RTVSPropertyOp24
 70
     1
102
RTVSPropertyOp25
 70
     1
102
RTVSPropertyOp26
 70
     1
102
RTVSPropertyOp27
 70
     1
102
RTVSPropertyOp28
 70
     1
102
RTVSPropertyOp29
 70
     1
102
RTVSPropertyOp30
 70
     1
102
RTVSPropertyOp31
 70
     1
102
RTVSPropertyOp32
 70
     1
  0
XRECORD
  5
2B5
102
{ACAD_REACTORS
330
2B4
102
}
330
2B4
100
AcDbXrecord
280
     1
102
RTVSPropertyOp0
 70
     1
102
RTVSPropertyOp1
 70
     1
102
RTVSPropertyOp2
 70
     1
102
RTVSPropertyOp3
 70
     1
102
RTVSPropertyOp4
 70
     1
102
RTVSPropertyOp5
 70
     1
102
RTVSPropertyOp6
 70
     1
102
RTVSPropertyOp7
 70
     1
102
RTVSPropertyOp8
 70
     1
102
RTVSPropertyOp9
 70
     1
102
RTVSPropertyOp10
 70
     1
102
RTVSPropertyOp11
 70
     1
102
RTVSPropertyOp12
 70
     1
102
RTVSPropertyOp13
 70
     1
102
RTVSPropertyOp14
 70
     1
102
RTVSPropertyOp15
 70
     1
102
RTVSPropertyOp16
 70
     1
102
RTVSPropertyOp17
 70
     1
102
RTVSPropertyOp18
 70
     1
102
RTVSPropertyOp19
 70
     1
102
RTVSPropertyOp20
 70
     1
102
RTVSPropertyOp21
 70
     1
102
RTVSPropertyOp22
 70
     1
102
RTVSPropertyOp23
 70
     1
102
RTVSPropertyOp24
 70
     1
102
RTVSPropertyOp25
 70
     1
102
RTVSPropertyOp26
 70
     1
102
RTVSPropertyOp27
 70
     1
102
RTVSPropertyOp28
 70
     1
102
RTVSPropertyOp29
 70
     1
102
RTVSPropertyOp30
 70
     1
102
RTVSPropertyOp31
 70
     1
102
RTVSPropertyOp32
 70
     1
  0
XRECORD
  5
2B7
102
{ACAD_REACTORS
330
2B6
102
}
330
2B6
100
AcDbXrecord
280
     1
102
RTVSPropertyOp0
 70
     1
102
RTVSPropertyOp1
 70
     1
102
RTVSPropertyOp2
 70
     1
102
RTVSPropertyOp3
 70
     1
102
RTVSPropertyOp4
 70
     1
102
RTVSPropertyOp5
 70
     1
102
RTVSPropertyOp6
 70
     1
102
RTVSPropertyOp7
 70
     1
102
RTVSPropertyOp8
 70
     1
102
RTVSPropertyOp9
 70
     1
102
RTVSPropertyOp10
 70
     1
102
RTVSPropertyOp11
 70
     1
102
RTVSPropertyOp12
 70
     1
102
RTVSPropertyOp13
 70
     1
102
RTVSPropertyOp14
 70
     1
102
RTVSPropertyOp15
 70
     1
102
RTVSPropertyOp16
 70
     1
102
RTVSPropertyOp17
 70
     1
102
RTVSPropertyOp18
 70
     1
102
RTVSPropertyOp19
 70
     1
102
RTVSPropertyOp20
 70
     1
102
RTVSPropertyOp21
 70
     1
102
RTVSPropertyOp22
 70
     1
102
RTVSPropertyOp23
 70
     1
102
RTVSPropertyOp24
 70
     1
102
RTVSPropertyOp25
 70
     1
102
RTVSPropertyOp26
 70
     1
102
RTVSPropertyOp27
 70
     1
102
RTVSPropertyOp28
 70
     1
102
RTVSPropertyOp29
 70
     1
102
RTVSPropertyOp30
 70
     1
102
RTVSPropertyOp31
 70
     1
102
RTVSPropertyOp32
 70
     1
  0
XRECORD
  5
2CB
102
{ACAD_REACTORS
330
2CA
102
}
330
2CA
100
AcDbXrecord
280
     1
102
RTVSPropertyOp0
 70
     1
102
RTVSPropertyOp1
 70
     1
102
RTVSPropertyOp2
 70
     1
102
RTVSPropertyOp3
 70
     1
102
RTVSPropertyOp4
 70
     1
102
RTVSPropertyOp5
 70
     1
102
RTVSPropertyOp6
 70
     1
102
RTVSPropertyOp7
 70
     1
102
RTVSPropertyOp8
 70
     1
102
RTVSPropertyOp9
 70
     1
102
RTVSPropertyOp10
 70
     1
102
RTVSPropertyOp11
 70
     1
102
RTVSPropertyOp12
 70
     1
102
RTVSPropertyOp13
 70
     1
102
RTVSPropertyOp14
 70
     1
102
RTVSPropertyOp15
 70
     1
102
RTVSPropertyOp16
 70
     1
102
RTVSPropertyOp17
 70
     1
102
RTVSPropertyOp18
 70
     1
102
RTVSPropertyOp19
 70
     1
102
RTVSPropertyOp20
 70
     1
102
RTVSPropertyOp21
 70
     1
102
RTVSPropertyOp22
 70
     1
102
RTVSPropertyOp23
 70
     1
102
RTVSPropertyOp24
 70
     1
102
RTVSPropertyOp25
 70
     1
102
RTVSPropertyOp26
 70
     1
102
RTVSPropertyOp27
 70
     1
102
RTVSPropertyOp28
 70
     1
102
RTVSPropertyOp29
 70
     1
102
RTVSPropertyOp30
 70
     1
102
RTVSPropertyOp31
 70
     1
102
RTVSPropertyOp32
 70
     1
  0
XRECORD
  5
2C1
102
{ACAD_REACTORS
330
2C0
102
}
330
2C0
100
AcDbXrecord
280
     1
102
RTVSPropertyOp0
 70
     1
102
RTVSPropertyOp1
 70
     1
102
RTVSPropertyOp2
 70
     1
102
RTVSPropertyOp3
 70
     1
102
RTVSPropertyOp4
 70
     1
102
RTVSPropertyOp5
 70
     1
102
RTVSPropertyOp6
 70
     1
102
RTVSPropertyOp7
 70
     1
102
RTVSPropertyOp8
 70
     1
102
RTVSPropertyOp9
 70
     1
102
RTVSPropertyOp10
 70
     1
102
RTVSPropertyOp11
 70
     1
102
RTVSPropertyOp12
 70
     1
102
RTVSPropertyOp13
 70
     1
102
RTVSPropertyOp14
 70
     1
102
RTVSPropertyOp15
 70
     1
102
RTVSPropertyOp16
 70
     1
102
RTVSPropertyOp17
 70
     1
102
RTVSPropertyOp18
 70
     1
102
RTVSPropertyOp19
 70
     1
102
RTVSPropertyOp20
 70
     1
102
RTVSPropertyOp21
 70
     1
102
RTVSPropertyOp22
 70
     1
102
RTVSPropertyOp23
 70
     1
102
RTVSPropertyOp24
 70
     1
102
RTVSPropertyOp25
 70
     1
102
RTVSPropertyOp26
 70
     1
102
RTVSPropertyOp27
 70
     1
102
RTVSPropertyOp28
 70
     1
102
RTVSPropertyOp29
 70
     1
102
RTVSPropertyOp30
 70
     1
102
RTVSPropertyOp31
 70
     1
102
RTVSPropertyOp32
 70
     1
  0
XRECORD
  5
2C9
102
{ACAD_REACTORS
330
2C8
102
}
330
2C8
100
AcDbXrecord
280
     1
102
RTVSPropertyOp0
 70
     1
102
RTVSPropertyOp1
 70
     1
102
RTVSPropertyOp2
 70
     1
102
RTVSPropertyOp3
 70
     1
102
RTVSPropertyOp4
 70
     1
102
RTVSPropertyOp5
 70
     1
102
RTVSPropertyOp6
 70
     1
102
RTVSPropertyOp7
 70
     1
102
RTVSPropertyOp8
 70
     1
102
RTVSPropertyOp9
 70
     1
102
RTVSPropertyOp10
 70
     1
102
RTVSPropertyOp11
 70
     1
102
RTVSPropertyOp12
 70
     1
102
RTVSPropertyOp13
 70
     1
102
RTVSPropertyOp14
 70
     1
102
RTVSPropertyOp15
 70
     1
102
RTVSPropertyOp16
 70
     1
102
RTVSPropertyOp17
 70
     1
102
RTVSPropertyOp18
 70
     1
102
RTVSPropertyOp19
 70
     1
102
RTVSPropertyOp20
 70
     1
102
RTVSPropertyOp21
 70
     1
102
RTVSPropertyOp22
 70
     1
102
RTVSPropertyOp23
 70
     1
102
RTVSPropertyOp24
 70
     1
102
RTVSPropertyOp25
 70
     1
102
RTVSPropertyOp26
 70
     1
102
RTVSPropertyOp27
 70
     1
102
RTVSPropertyOp28
 70
     1
102
RTVSPropertyOp29
 70
     1
102
RTVSPropertyOp30
 70
     1
102
RTVSPropertyOp31
 70
     1
102
RTVSPropertyOp32
 70
     1
  0
ENDSEC
  0
EOF
